v

您的位置:VeryCD动漫动漫周边

动漫资源事务区


《纯情房东俏房客原声音乐》(LOVE HINA)[Hanata Girls Song Best 2][APE]

  • 状态: 精华资源
  • 摘要:
    发行时间2001年10月03日
  • 时间: 2006/01/01 18:52:47 发布 | 2006/01/01 18:52:47 更新
  • 分类: 动漫  动漫周边 

风林水山

精华资源: 311

全部资源: 316

相关: 分享到新浪微博   转播到腾讯微博   分享到开心网   分享到人人   分享到QQ空间   订阅本资源RSS更新   美味书签  subtitle
该内容尚未提供权利证明,无法提供下载。
中文名纯情房东俏房客原声音乐
英文名LOVE HINA
别名ひなたガ
版本[Hanata Girls Song Best 2][APE]
发行时间2001年10月03日
简介

IPB Image


【专辑介绍】:

ひなたガールズソングベスト2 ~ラブひな~

http://202.101.235.102:8080/1/2006-1-2/20060102153624383746.jpg http://202.101.235.102:8080/1/2006-1-2/20060102153751735528.jpg

◆商品番号: KICA-557
◆メディア: アルバムCD
◆组枚数: 1
◆発売日: 2001/10/03
◆価格: 3000円(税込)

■アーティスト/ キャスト ■

堀江由衣 (アーティスト)  仓田雅世 (アーティスト) 
浅川悠 (アーティスト)  高木礼子 (アーティスト) 
野田顺子 (アーティスト)  雪乃五月 (アーティスト) 
小林由美子 (アーティスト)  冈崎律子 (作词者) 
十川知司 (编曲者)  上田祐司 (アーティスト) 
有森聡美 (作词者)  山下俊 (作曲者) 
岩本正树 (编曲者)  根津洋子 (作词者) 
宫岛律子 (作曲者)  久和カノン (作词者) 
千沢仁 (作曲者)  五岛翔 (编曲者) 
木本庆子 (作词者)  山崎利明 (作曲者) 
工藤哲雄 (作词者)  真友 (作曲者) 
小林信吾 (编曲者)  菅井えり (作曲者) 
是永巧一 (编曲者)  尾崎雪絵 (作词者) 
広木由架 (作曲者)  堀隆 (编曲者) 
泉川そら (作曲者)  太田美知彦 (编曲者) 
古池孝浩 (作曲者)  重実彻 (编曲者) 

■内容■

あの「ラブひな」からボーカルベストアルバム第2弾登场。既存のボーカルソング10曲に加え、今回新録のボーカルソング3曲を収録。幻の名曲「Friendship」も完全収録!!


【专辑曲目】:

1. イツマデモ ドコマデモ
2. サクラサク-musical version-
3. 约束
4. Smile for you/ 仓田雅世
5. バリバリ おてんば/ 高木礼子
6. 真剣/ 浅川悠
7. ラ.ムーンな気分で/ 野田顺子
8. Heat Up Up Girl/ 高木礼子
9. 心はハチャメチャカーニバル/ 仓田雅世
10. LOVE LABYRINTH
11. 祝福
12. 笑顔の未来へ
13. Friendship


【服务器】:Popgo Anime Server ed2k://|server|61.145.112.13|3721|/
【共享时间】:7*23 除计划关机和断电外一般开机

负责声明:上传量为档案大小10倍时撤发布级别,保证有源一个月,过期刻盘备份,待贴自然死亡。

引用

REM GENRE Anime
REM DATE 2001
REM DISCID 910D110D
REM COMMENT "ExactAudioCopy v0.95b2"
PERFORMER "Various"
TITLE "ひなたガールズソングベスト 2 ~ラブひな~"
FILE "ひなたガールズソングベスト 2 ~ラブひな~.ape" WAVE
TRACK 01 AUDIO
TITLE "イツマデモドコマデモ"
PERFORMER "堀江由衣.倉田雅世.浅川悠.高木礼子.野田順子.雪乃五月.小林由美子"
INDEX 01 00:00:00
TRACK 02 AUDIO
TITLE "サクラサク-musical version-"
PERFORMER "堀江由衣.雪乃五月.上田祐司"
INDEX 00 04:06:39
INDEX 01 04:08:43
TRACK 03 AUDIO
TITLE "約束"
PERFORMER "堀江由衣"
INDEX 00 07:19:31
INDEX 01 07:21:43
TRACK 04 AUDIO
TITLE "Smile for you"
PERFORMER "倉田雅世"
INDEX 00 12:02:64
INDEX 01 12:05:13
TRACK 05 AUDIO
TITLE "バリバリおてんば"
PERFORMER "高木礼子.小林由美子"
INDEX 00 17:49:49
INDEX 01 17:51:63
TRACK 06 AUDIO
TITLE "真剣"
PERFORMER "浅川悠"
INDEX 00 21:08:31
INDEX 01 21:10:63
TRACK 07 AUDIO
TITLE "ラ.ムーンな気分で"
PERFORMER "野田順子"
INDEX 00 25:26:14
INDEX 01 25:28:05
TRACK 08 AUDIO
TITLE "Heat up up Girl"
PERFORMER "高木礼子"
INDEX 00 29:20:24
INDEX 01 29:22:28
TRACK 09 AUDIO
TITLE "心はハチャメチャカーニバル"
PERFORMER "倉田雅世.高木礼子.小林由美子"
INDEX 00 33:45:01
INDEX 01 33:46:70
TRACK 10 AUDIO
TITLE "LOVE LABYRINTH"
PERFORMER "堀江由衣.浅川悠.野田順子.雪乃五月"
INDEX 00 37:31:36
INDEX 01 37:33:45
TRACK 11 AUDIO
TITLE "祝福"
PERFORMER "堀江由衣.倉田雅世.浅川悠.高木礼子.野田順子.雪乃五月.小林由美子"
INDEX 00 41:43:56
INDEX 01 41:45:55
TRACK 12 AUDIO
TITLE "笑顔の未来へ"
PERFORMER "堀江由衣"
INDEX 00 45:16:11
INDEX 01 45:18:13
TRACK 13 AUDIO
TITLE "Friendship"
PERFORMER "堀江由衣.倉田雅世.浅川悠.高木礼子.野田順子.雪乃五月.小林由美子"
INDEX 00 50:08:09
INDEX 01 50:12:08

正在读取……

这里是其它用户补充的资源(我也要补充):

暂无补充资源
正在加载,请稍等...

点击查看所有12网友评论

 

(?) [公告]留口水、评论相关规则 | [活动]每日签到 轻松领取电驴经验

    小贴士:
  1. 类似“顶”、“沙发”之类没有营养的文字,对勤劳贡献的楼主来说是令人沮丧的反馈信息。
  2. 提问之前请再仔细看一遍楼主的说明,或许是您遗漏了。
  3. 勿催片。请相信驴友们对分享是富有激情的,如果确有更新版本,您一定能搜索到。
  4. 请勿到处挖坑绊人、招贴广告。既占空间让人厌烦,又没人会搭理,于人于己都无利。
  5. 如果您发现自己的评论不见了,请参考以上4条。