v

您的位置:VeryCD动漫动漫周边

动漫资源事务区


《水星领航员广播剧》(ARIA)[The ANIMATION Drama CD II RED][APE]

  • 状态: 精华资源
  • 摘要:
    发行时间2005年12月22日
  • 时间: 2005/12/26 12:05:54 发布 | 2005/12/26 12:05:54 更新
  • 分类: 动漫  动漫周边 

风林水山

精华资源: 311

全部资源: 316

相关: 分享到新浪微博   转播到腾讯微博   分享到开心网   分享到人人   分享到QQ空间   订阅本资源RSS更新   美味书签  subtitle
该内容尚未提供权利证明,无法提供下载。
中文名水星领航员广播剧
英文名ARIA
版本[The ANIMATION Drama CD II RED][APE]
发行时间2005年12月22日
简介

IPB Image


专辑介绍:

◆ドラマCD (叶月絵理乃、斎藤千和、広桥凉、他)
◆商品番号: FCCM-90
◆メディア: アルバムCD
◆组枚数: 1
◆発売日: 2005/12/22
◆価格: 2940円(税込)

■アーティスト/ キャスト ■
叶月絵理乃 (アーティスト)  斎藤千和 (アーティスト) 
広桥凉 (アーティスト)  大原さやか (アーティスト) 
皆川纯子 (アーティスト)  水桥かおり (アーティスト) 
西村ちなみ (アーティスト)  野岛裕史 (アーティスト) 
渡辺明乃 (アーティスト)  清川元梦 (アーティスト) 

■内容■
2005年10月より放送开始のTVアニメーション「ARIA The ANIMATION」待望のドラマCD化第2巻!! 全编オリジナルストーリーで、灯里たちの穏やかで优しい出来事に満ちた日常が描かれる。お驯染みのキャラクターたちが织り成す、珠玉のストーリーが満载!! ジャケットイラスト: 天野こずえによる美丽イラスト。


■Story■
http://www.neowing.co.jp/anime/essentials/aria/img/main_r1_c1.jpg http://www.neowing.co.jp/anime/essentials/aria/img/main_r1_c2.jpg http://www.neowing.co.jp/anime/essentials/aria/img/main_r1_c3.jpg
地球暦2301年。水の惑星AQUAにある観光都市ネオ・ヴェネツィア。街中に水路が走るこの美しい街の交通手段の中心は舟(ゴンドラ)。地球(マンホーム)出身の水無灯里は街のアイドル的職業「水先案内人(ウンディーネ)」になるため「ARIAカンパニー」に下宿中。

優しい先輩、個性的な友達、かわいい社長(なんと猫!)に囲まれて、一人前目指して毎日大好きな舟の修行に励んでいる。AQUAの四季が織り成す美しい風景を舞台に、灯里の優しい日常を綴った、ほんわかまったり未来形ヒーリングストーリー。

慌しい日常の中では見つけられない、何気ない日々の中でこそ見つけられる、忘れてしまいがちな大切な“身の回りにある幸せ”に気づかせてくれる、心を癒す物語。
http://www.neowing.co.jp/anime/essentials/aria/img/logo.gif
◆水無灯里: http://www.neowing.co.jp/anime/essentials/aria/img/akari.jpg
(CV: 葉月絵理乃 (Hazuki Erino) 『プリンセス・チュチュ(うずらちゃん)』、 『SDガンダムフォース(コア)』、 他)

ARIAカンパニー所属の“半人前”水先案内人。持ち前の明るさで周囲にはいつも笑いが絶えない。
元気一杯の15歳。

◆アリシア: http://www.neowing.co.jp/anime/essentials/aria/img/alicia.jpg
(CV: 大原さやか (Ohhara Sayaka) 『劇場版xxxHOLiC真夏ノ夜ノ夢(壱原侑子)』、 『カレイドスター(レイラ・ハミルトン)』、 他)

灯里の会社の先輩。水先案内人の中でも『三大妖精』とまで呼ばれる、業界トップクラスのスゴイ人。皆の憧れの的である。
あらあら、うふふの人。

◆藍華: http://www.neowing.co.jp/anime/essentials/aria/img/aika.jpg
(CV: 斎藤千和 (Saitou Chiwa) 『ケロロ軍曹(日向夏美)』、 『ぱにぽにだっしゅ!(レベッカ宮本)』、 他)

姫屋所属。灯里と同じ“半人前”水先案内人。後輩3人娘の中でリーダー的存在。
灯里の恥ずかしいセリフに激しく反応する。

◆アリス: http://www.neowing.co.jp/anime/essentials/aria/img/alice.jpg
(CV: 広橋涼 (Hirohashi Ryo) 『カレイドスター(苗木野そら)』、 『ソニックX(テイルス)』、 他)

オレンジぷらねっと所属。まだ“見習い”水先案内人だが、その技量は皆が一目置く天才肌。
「でっかい○○」が口グセ。
(例:でっかいお世話です)

◆アリア社長: http://www.neowing.co.jp/anime/essentials/aria/img/aria_shacyo.jpg
(CV: 西村ちなみ (Nishimura Chinami) 『おじゃる丸(おじゃる丸)』、 『円盤皇女ワるきゅーレ(ハイドラ)』、 他)

ARIAカンパニーの社長。水先案内人業界では青い目(アクアマリンの瞳)のネコを社長に据える慣わしとなっている。
いつも灯里と一緒に行動するアクア猫。

◆晃:(CV: 皆川純子 (Minagawa Junko) 『テニスの王子様(越前リョーマ)』、 『LOVELESS(青柳立夏)』、 他)

◆アテナ:(CV: 川上とも子 (Kawakami Tomoko) 『AIR(神尾観鈴)』、 『少女革命ウテナ(天上ウテナ)』、 他)

◆アイ:(CV: 水橋かおり (Mizuhashi Kaori) 『英國戀物語エマ(ヴィヴィアン・ジョーンズ)』、 『藍より青し(水無月妙子)』、 他)

■STAFF■
◆監督/シリーズ構成:佐藤順一
◆キャラクターデザイン/総作画監督:古賀誠
◆脚本:吉田玲子
◆音楽:Choro Club feat.Senoo
◆オープニングテーマ「ウンディーネ」
歌:牧野由依 作詞:河井英里 作曲・編曲:窪田ミナ
◆エンディングテーマ 「Rainbow」
歌:ROUND TABLE feat.Nino 作詞・作曲:北川勝利 編曲:ROUND TABLE
◆アニメーション制作:ハルフィルムメーカー


专辑曲目:
1. Navigation 01:师弟の绊
2. Navigation 02:练习风景
3. Navigation 03:今、アルに爱に行きます
4. Navigation 04:ビデオチャットパーティー~死霊の惑星~


【服务器】:Popgo Anime Server ed2k://|server|61.145.112.13|3721|/
【共享时间】:7*23 除计划关机和断电外一般开机

如出现使用包内cue文件无法找到APE文件
请复制下面重新修改编辑过的列表使用

引用

CATALOG 0000000000000
TITLE "ARIA The ANIMATION Drama CD II RED"
FILE "CDImage.ape" WAVE
TRACK 01 AUDIO
TITLE "師弟の絆"
PERFORMER "Navigation"
ISRC 000000000000
INDEX 01 00:00:00
TRACK 02 AUDIO
TITLE "練習風景"
PERFORMER "Navigation"
ISRC 000000000000
INDEX 01 12:45:32
TRACK 03 AUDIO
TITLE "今、アルに愛に行きます"
PERFORMER "Navigation"
ISRC 000000000000
INDEX 01 32:55:50
TRACK 04 AUDIO
TITLE "ビデオチャットパーティー"
PERFORMER "Navigation"
ISRC 000000000000
INDEX 01 52:04:30
TRACK 05 AUDIO
TITLE "~死霊の惑星~"
PERFORMER "Navigation"
ISRC 000000000000
INDEX 01 59:17:37

正在读取……

这里是其它用户补充的资源(我也要补充):

暂无补充资源
正在加载,请稍等...

点击查看所有3网友评论

 

(?) [公告]留口水、评论相关规则 | [活动]每日签到 轻松领取电驴经验

    小贴士:
  1. 类似“顶”、“沙发”之类没有营养的文字,对勤劳贡献的楼主来说是令人沮丧的反馈信息。
  2. 提问之前请再仔细看一遍楼主的说明,或许是您遗漏了。
  3. 勿催片。请相信驴友们对分享是富有激情的,如果确有更新版本,您一定能搜索到。
  4. 请勿到处挖坑绊人、招贴广告。既占空间让人厌烦,又没人会搭理,于人于己都无利。
  5. 如果您发现自己的评论不见了,请参考以上4条。