v

您的位置:VeryCD动漫动漫周边

动漫资源事务区


《银盘万花镜原声音乐》(Ginban)[ED Single energy][APE][MP3]

  • 状态: 精华资源
  • 摘要:
    对白语言日语
  • 时间: 2005/12/26 01:04:20 发布 | 2005/12/26 01:04:20 更新
  • 分类: 动漫  动漫周边 

风林水山

精华资源: 311

全部资源: 316

相关: 分享到新浪微博   转播到腾讯微博   分享到开心网   分享到人人   分享到QQ空间   订阅本资源RSS更新   美味书签  subtitle
该内容尚未提供权利证明,无法提供下载。
中文名银盘万花镜原声音乐
英文名Ginban
别名银盘万花筒
版本[ED Single energy][APE][MP3]
地区日本
对白语言日语
简介

IPB Image


http://202.101.235.102:8080/1/2005-12-26/20051226010252565418.jpg

专辑介绍:

商品番号: SVWC-7325
メディア: マキシシングルCD
组枚数: 1
発売日: 2005/12/21
価格: 1155円(税込)

アーティスト/ キャスト
井上麻里奈 (アーティスト) 

内容
テレビ东京系アニメ「银盘カレイドスコープ」エンディングテーマ曲!! 歌うのは本城ミカ役で出演の井上麻里奈。カップリングとして、ラジオ番组「HEART OF ANGEL」内「井上麻里奈のウキウキ気分」のテーマ曲も収録。



专辑曲目:

1. 井上麻里奈 - [energy #01] energy [4:49]
2. 井上麻里奈 - [energy #02] Way [3:49]
3. 井上麻里奈 - [energy #03] energy (original karaoke) [4:48]
4. 井上麻里奈 - [energy #04] Why (original karaoke) [3:45]

【服务器】:Popgo Anime Server ed2k://|server|61.145.112.13|3721|/
【共享时间】:7*23 除计划关机和断电外一般开机

如出现使用包内cue文件无法找到APE文件
请复制下面重新修改编辑过的简体列表使用

引用

REM GENRE Anime
REM DATE 2005
REM DISCID 26040804
REM COMMENT "ExactAudioCopy v0.95b3"
PERFORMER "井上麻里奈"
TITLE "energy"
REM REPLAYGAIN_ALBUM_GAIN -9.90 dB
REM REPLAYGAIN_ALBUM_PEAK 1.000000
FILE "井上麻里奈 - energy.ape" WAVE
TRACK 01 AUDIO
TITLE "energy"
PERFORMER "井上麻里奈"
ISRC JPE300501821
INDEX 01 00:00:00
REM REPLAYGAIN_TRACK_GAIN -9.82 dB
REM REPLAYGAIN_TRACK_PEAK 1.000000
TRACK 02 AUDIO
TITLE "Way"
PERFORMER "井上麻里奈"
ISRC JPE300501822
INDEX 00 04:47:68
INDEX 01 04:49:32
REM REPLAYGAIN_TRACK_GAIN -10.58 dB
REM REPLAYGAIN_TRACK_PEAK 1.000000
TRACK 03 AUDIO
TITLE "energy (original karaoke)"
PERFORMER "井上麻里奈"
ISRC JPE300501823
INDEX 00 08:34:74
INDEX 01 08:38:32
REM REPLAYGAIN_TRACK_GAIN -7.23 dB
REM REPLAYGAIN_TRACK_PEAK 1.000000
TRACK 04 AUDIO
TITLE "Why (original karaoke)"
PERFORMER "井上麻里奈"
ISRC JPE300501824
INDEX 00 13:25:29
INDEX 01 13:27:01
REM REPLAYGAIN_TRACK_GAIN -9.70 dB
REM REPLAYGAIN_TRACK_PEAK 1.000000

正在读取……

这里是其它用户补充的资源(我也要补充):

暂无补充资源
正在加载,请稍等...

点击查看所有5网友评论

 

(?) [公告]留口水、评论相关规则 | [活动]每日签到 轻松领取电驴经验

    小贴士:
  1. 类似“顶”、“沙发”之类没有营养的文字,对勤劳贡献的楼主来说是令人沮丧的反馈信息。
  2. 提问之前请再仔细看一遍楼主的说明,或许是您遗漏了。
  3. 勿催片。请相信驴友们对分享是富有激情的,如果确有更新版本,您一定能搜索到。
  4. 请勿到处挖坑绊人、招贴广告。既占空间让人厌烦,又没人会搭理,于人于己都无利。
  5. 如果您发现自己的评论不见了,请参考以上4条。