v

您的位置:VeryCD音乐华语音乐

音乐资源事务区


张靓颖 -《The One》(The One)大陆版[APE]

  • 状态: 精华资源
  • 摘要:
    发行时间2006年10月
    地区大陆
    语言普通话,英语
  • 时间: 2006/10/12 17:12:43 发布 | 2006/10/12 17:12:43 更新
  • 分类: 音乐  华语音乐 

machunping

精华资源: 8

全部资源: 8

相关: 分享到新浪微博   转播到腾讯微博   分享到开心网   分享到人人   分享到QQ空间   订阅本资源RSS更新   美味书签  subtitle
该内容尚未提供权利证明,无法提供下载。
专辑中文名The One
专辑英文名The One
歌手张靓颖
资源格式APE
版本大陆版
发行时间2006年10月
地区大陆
语言普通话,英语
简介

IPB Image


专辑介绍:

仅仅是一年的时间,一个籍籍无名的爱唱歌的女孩,实现了人生最大的飞跃。从千万人中脱颖而出,到现时的万众瞩 目,张靓颖用令太多人侧目和骄傲的音乐实力证明,她一路过关斩将走到今天,绝非侥幸。

这一年,在华谊兄弟音乐强大的音乐平台上,张靓颖成为众多同一起跑点上最早发力的领跑人,率先推出个人的首张EP,这一年,张靓颖以绝 对的音乐素养征服世界级音乐大师谭盾,成为<夜宴>中气势磅礴荡气回肠的歌声演绎人;这一年,张靓颖以令人咋舌的极高人气,获得众多一线品牌的关注和亲睐,成为新一代的广告代言当红人选;这一年,张靓颖辗转大江南北世界各地,用沉默或者是歌唱,向喜欢或不喜欢她的人证明,给她一支麦克风,她就是舞台上能用歌声散发耀眼光芒的那个人。

我承认我还不算是个合格的艺人,但是对于做一个优秀的歌手,我有绝对的自信。--张靓颖

她是这样说的,她的确也是。

张靓颖用一年的时间来适应个人身份的急速转变,华谊兄弟音乐用一年的时间来铺垫和谋划张靓颖的音乐生涯。在这一年中,沟通,对峙,了解,体谅,我们亲眼见证一个天赋秉异的女孩艰难而困惑的成长之路,也亲身经历了一个精彩动人的博奕过程。现在,请屏息凝神,证明我们的眼光和远见,证明华谊兄弟音乐投注巨资慢工细活的真正原由,因为作为一个歌手,张靓颖,不必仅仅属于现在,更属于未来。

她,22岁的中国女生,对世界歌唱。

从一开始,华谊兄弟音乐就没有把张靓颖仅仅定位成一个比赛获胜的短线艺人。正如很多人看到和冀望的那样,张靓颖拥有绝对的实力和底蕴,完全可以去到更高,和更远。

EP过后,华谊兄弟音乐开始着手筹备这张张靓颖真正意义上的个人专辑,我们将张靓颖完全归零,她既不是超级女声最后的季军,也不是那个必须要飙出海豚音才能博得满堂喝彩的海豚公主,更不是一个被众醒捧月的唱歌机器。我们把她还原成为最朴素和简单的她,一个22岁的中国女生,喜欢唱歌,也很会唱歌。而“立足中国,辐射整个华语区,放眼世界”的理念,也一直贯穿在整张专辑的制作过程中。

一个22岁的中国女生,她有娇小的外表和强悍的内心,当她开始歌唱,她想要和将要面对的,是整个世界。

专辑中三首英文歌的全美国制作,一度成为媒体关注和讨论的焦点。当人们把焦点放在巨额制作花费幷忽略这件事情真正的意义时,也许我们需要在这里补充说明:全球化的今天,在海外进行音乐制作幷不稀奇,张靓颖幷不是第一个;所谓海外制作,幷不简单只是出国录音或者进行制作中的某一个环节,它所指的是一个作品的整体流程及完成,这次收录在专辑中的三首英文歌,从创作,编曲,乐手演奏,和音,主唱到缩混,都是完全在美国完成的;有很多海外制作,歌手仍然是在海外的录音室里用自己的母语演绎作品,而此次张靓颖,是用纯正的英文演唱由美国音乐人创作的作品;最值得一提的是,此次独挑大梁的美国制作人Craig Williams在接洽最初态度幷不明朗,摆明一副“你们有钱也未必请得动我的架势”,就是这位美国一线制作人,在听到了张靓颖的清唱DEMO后,立刻被这个东方女孩杰出的音乐表现折服,欣然接受了来自中国的第一个制作案。

无论对于张靓颖还是华谊兄弟音乐,全美国制作的三首英文歌,对于整个专辑来说,是一种锦上添花,也是一次实力和勇气的证明。我们也许不要向自己人证明什么,但是我们在大洋彼岸向他们证明,中国的歌手,已经完全拥有了站在世界舞台的实力和势气。

  三大关键词解读张靓颖

  天赋

  在我制作的所有歌手中,张靓颖是音乐悟性最高的,甚至超过很多专业人士。--李伟菘

  童年的颠沛,成长的艰难,命运似乎在一开始幷没有太眷顾张靓颖,它只是在最初就把一个珍贵的礼物给了这个女孩,让她自己去发现和运用。对音乐感知的天赋,让张靓颖拥有了将每个音符化腐朽为神奇的歌唱天赋。美国制作人Craig Williams阅高人无数,在形容张靓颖时,短短的一分钟话,一连使用了多达5个Fantastic,激动和赞赏,溢于言表。

  刻苦

  我总是认为,唱歌其实不是在用嗓子,而是在用脑子。--张靓颖

  在专辑的制作过程中,张靓颖不经意流露的小细节,给我们留下深刻的印象,幷以此感慨。我们已经很久没有遇到能把所有DEMO唱得分毫不差的歌手,甚至是用原DEMO的韩文!我们也很久没有遇到在还没有录唱之前就已经设计了5种以上不同演唱方式的歌手!我们更是很久没有遇到能够脱词录音的歌手!而所有的这一切,都是需要事先做大量准备功课的!!

  真实

  在我眼中,靓颖就是一个小女孩,这个行业对她提出了很多要求,对于一个22岁的女孩子来说,有些的确很残酷。--某华谊工作人员

  和所有80年代的新人类一样,张靓颖身上,闪光着一些只属于年轻的自信和勇敢。她从来不勉强委曲求全,也从来不刻意讨好逢迎。直到今天,她仍然拒绝接受娱乐圈的一些摸棱两可的规则和妥协。她敢于说NO,她拥有清楚的原则和底线,她更愿意做一个自由的歌者,而不是光环之下失去太多的明星。所以,以此派生出来了一些其它的性格特征,在张靓颖的身上,都是真实的衍生面,比如说完美主义,坚持自我,直率,倔强。

  张靓颖 首张中英文双语专辑 The One

  这是我的第一张真正意义上的个人唱片

  取名为THE ONE

  曾经有人问过我

  如果不唱歌会做什么

  到今天我仍然没有答案

  也许没有比唱歌更适合我的事情

  因此唱歌对于我来说

  是人生的THE ONE

  是我唯一爱做

  也唯一有自信做得好的

  THE ONE

  我也有些小小的贪心

  在某些时刻

  某个记忆

  和某段旋律中

  我的歌

  会有那种幸运

  成为你的THE ONE

  THE ONE仅仅只是个开始

  我当然知道

  1只比0多了一点点

  如果我不是张靓颖

  在人海中和你擦肩而过的陌生人里

  我非常确定

  自己仍然是那个

  爱唱歌的THE ONE

  所以

  当张靓颖唱歌给你听

  You’re THE ONE
  
  聆赏,一颗歌唱的美钻

  张靓颖首张中英文双语专辑曲目详解

  身体语言 俏皮可爱张靓颖。

  作曲:深白色作词:深白色编曲:Martin Tang制作人:李偲菘

  以吉他为线条勾勒出整首歌跳跃而动感的线条。新加坡编曲人Martin Tang以完全不同于深白色DEMO版本的编曲加强了这首歌的阳光气质。在这首歌里,张靓颖首次在音乐中演绎了与自己年龄相当的女孩情事,也首度在唱腔和咬字部分采用了比以往更加乾脆利落的方式来处理歌曲。整首歌曲呈现出来的张靓颖,相当俏皮可爱。

  这该死的爱 深情内敛张靓颖。

  作曲:Park Sei Joon作词:文雅编曲:Adam Lee制作人:李伟菘

  来自韩国的情歌高手Park Sei Joon,把旋律发挥到浑然天成,优美流畅幷感人。在这首歌里,张靓颖和制作人李伟菘不谋而合,同时放弃了一般流行情歌撕心裂肺的处理方式,而大胆的采用了更为内敛含蓄的唱法,这是一次对音乐和歌唱方式审美的默契,情感在张靓颖的歌曲里第一次被放到了最重要的位置,化技巧于无形,反而令所用到的技巧更显得成熟和老到。歌名几经斟酌最后确认为现在的歌名,由于和一韩国连续剧同名,在专辑曲目提前曝光时引起大家的猜测和热烈的讨论。事实上,这首歌虽然不是翻唱同名韩国电视剧的主题曲,但是歌词的灵感的确来自于此。

  如果爱下去 感人肺腑张靓颖。

  作曲:吴梦奇作词:丁一/唐恬编曲:杨波制作人:李伟菘

  吴梦奇已经成为近两年内地最具风头的新晋创作人。这此次收录在专辑中的两首他的作品,都是在所有曲目都已经确认后才听到的。为了收录这两首好歌,我们忍痛放弃了另外两首。在所有的制作完成后,《如果爱下去》一跃而出成为最意外的受到喜欢的作品。在这首歌中除了必要的真假音转换,张靓颖几乎完全放弃所有的技巧,是真正用情感来歌唱的一首歌。同时,这也是张靓颖唱得最松弛和自然的一首歌,而在这首歌中,街道声音,结尾清唱,副歌男声伴唱,都来自于张靓颖的创意。

  个人秘密 自信骄傲张靓颖。

  作曲:深白色作词:深白色编曲:李小亮制作人:郭亮

  台湾个性创作组合深白色同时有两首作品入选,这是其中靓颖本人比较偏爱的。在制作人郭亮的把控下,这首歌呈现出强烈的Band Sound和庸懒的人声部分的对比及融合,效果非常突出。张靓颖首次在唱歌时使用比较随意和懒散的方式来处理歌曲,更强化了歌曲本身所要传达的自信状态。

  木脑壳 本色率真张靓颖。

  作曲:靳松作词:文雅编曲:靳松制作人:李伟菘

  创作人新人靳松首次投稿作品,一击即中。从这个角度,也体现张靓颖在音乐上面不盲目依从名牌的朴素心态。歌词来源于张靓颖自我调侃的口头禅,是四川话里脑袋转不过弯的意思。是专辑中最具趣味又传达了张靓颖个人态度的一首歌。在这首歌里,张靓颖第一次RAP幷一次完成,她在节奏部分的准和稳令人咋舌。

  想你,零点零一分 伤感孤独张靓颖。

  作曲:吴梦奇作词:张悠悠编曲:杨波制作人:李伟菘

  把声音放到低,更低,低沉到仿佛自言自语。一个令人心疼的声音,唱一首令人心疼的歌。如泣如诉的大提琴和哀婉游转的歌声此起彼伏,音乐中呈现出午夜里孤独而清醒的伤感画面。这是作曲人吴梦奇流着眼泪写完的歌,也是张靓颖唯一一次在录音时唱到流泪的歌,幷且收回说过“泪洒录音棚”都是宣传的话。

  Midnight Goodnight 内心独白张靓颖。

  作曲:刘沁作词:文雅编曲:孟军制作人:郭亮

  在人生的急剧变化中,如何立定自我幷面对纷乱,相信张靓颖有自己深刻的内心历程。也许有些人就是在某一个瞬间里一下子就长大的。在这首歌里,没有解释没有辩白没有诉说,只是一个一夜长大的女孩子,在全世界的喧嚣或安静里,对自己的鼓励和肯定。是淡的,也是真的,更是坚定的。这就是张靓颖。

  Take it like a man

  Can’t take it back

  Girl of your dreams

  由美国一线音乐制作人Craig Williams担当制作的三首英文歌,让张靓颖的美国之行,幷不仅仅局限于工作,更多的则是一种体验和学习。美国同行和中国业者完全不同的工作习惯和作业手法,为张靓颖打开了更为宽阔和多元的音乐思考和实践空间。张靓颖以她和美国歌手相比都毫不逊色的专业素养和敬业精神,让所有参与的美国音乐人刮目相看,这是来自亚洲,来自中国的年轻一代歌手的实力。当张靓颖用纯正的英文,娴熟的技巧和无懈可击的音准节奏在大洋彼岸的录音室里录音时,在场的工作人员,都有扬眉吐气的骄傲感。这是我们的CHINESE GIRL,这是我们的CHINESE SINGER。

  正如张靓颖自己所说的那样,《THE ONE》只是个开始,她很清楚,1只比0多了一点点。在这个开始开始的时候,让我们用最挑剔的耳朵,来聆赏一颗歌唱的美钻,开始璀璨。

引用了will_mok 网友的介绍,在此表示感谢!
应大家要求。把cue文件贴出来:
PERFORMER "张靓颖"
TITLE "The One"
FILE "张靓颖.-.[The.One].专辑.(ape).ape" WAVE
TRACK 01 AUDIO
TITLE "身体语言"
INDEX 01 00:00:00
TRACK 02 AUDIO
TITLE "这该死的爱"
INDEX 01 04:15:22
TRACK 03 AUDIO
TITLE "Take it like a man"
INDEX 01 09:12:22
TRACK 04 AUDIO
TITLE "如果爱下去"
INDEX 01 13:01:12
TRACK 05 AUDIO
TITLE "Can't take it back"
INDEX 01 17:03:37
TRACK 06 AUDIO
TITLE "个人秘密"
INDEX 01 20:16:09
TRACK 07 AUDIO
TITLE "想你,零点零一分"
INDEX 01 24:26:70
TRACK 08 AUDIO
TITLE "木脑壳"
INDEX 01 28:38:35
TRACK 09 AUDIO
TITLE "Girl of your dreams"
INDEX 01 32:26:32
TRACK 10 AUDIO
TITLE "Midnight,goodnight"
INDEX 01 36:21:67



专辑曲目

01.身体语言
02.这该死的爱
03.Take it like a Man
04.如果爱下去
05.Can't Take It Back
06.个人秘密
07.想你
零点零一分
08.木脑壳
09.Girl of Your Dreams
10.Midnight
Goodnight

正在读取……

这里是其它用户补充的资源(我也要补充):

才狼子 2010/04/23 13:11:50 补充
...

该内容尚未提供权利证明,无法提供下载。
正在加载,请稍等...

点击查看所有81网友评论

 

(?) [公告]留口水、评论相关规则 | [活动]每日签到 轻松领取电驴经验

    小贴士:
  1. 类似“顶”、“沙发”之类没有营养的文字,对勤劳贡献的楼主来说是令人沮丧的反馈信息。
  2. 提问之前请再仔细看一遍楼主的说明,或许是您遗漏了。
  3. 勿催片。请相信驴友们对分享是富有激情的,如果确有更新版本,您一定能搜索到。
  4. 请勿到处挖坑绊人、招贴广告。既占空间让人厌烦,又没人会搭理,于人于己都无利。
  5. 如果您发现自己的评论不见了,请参考以上4条。