v

您的位置:VeryCD音乐日韩音乐

音乐资源事务区


GLAY -《DRIVE.GLAY.complete.BEST》专辑[APE]

  • 状态: 精华资源
  • 摘要:
    发行时间2000年11月29日
    地区日本
    语言日语
  • 时间: 2006/02/19 09:55:12 发布 | 2006/02/19 09:55:12 更新
  • 分类: 音乐  日韩音乐 

大头猫米

精华资源: 77

全部资源: 82

相关: 分享到新浪微博   转播到腾讯微博   分享到开心网   分享到人人   分享到QQ空间   订阅本资源RSS更新   美味书签  subtitle
该内容尚未提供权利证明,无法提供下载。
专辑中文名DRIVE.GLAY.complete.BEST
歌手GLAY
资源格式APE
版本专辑
发行时间2000年11月29日
地区日本
语言日语
简介

IPB Image


专辑介绍:

档案来源:原创供档
供档方式:自供档


若有人说宇多田光和仓木麻衣等女歌手是目前乐坛的所谓R&B指针,那幺摇滚乐团第一把交椅就相信非GLAY莫属了,因为不论人气度抑或乐曲质素这4名来自北海道的男孩也是实至名归的。

还是别费周章去解释为何GLAY会那幺红了,大家只要看此专辑推出首周能轻易取得172万只的销量,就应该知道现在还是GLAY的世代,其它同侪难以取之超然地位。和3年前的“蓝盘”《REVIEW~BESTOFGLAY》比较,这次“红盘”收录了共24首歌,其中17首是根据上一张单曲〈困惑╱SPECIALTHANKS〉时所举办的听众应募(Request)而抽选出来的,再加上这两首歌、数只队长TAKURO的指定旧作以及最新单曲〈MissingYou〉构成,单是内容已非常吸引。如果撇开曲目不谈,本精选碟的最大卖点绝对是远赴美国重新将各首歌Remastering,某些Solo部份明显地比原版更为突出,由此可看到幕后人员付出的心血。

接着便要谈谈碟内的各首歌曲,它收录了GLAY历来其中17首单曲作品,其余7首则是以往专辑里的重点名曲,包括有JIRO包办作曲及主唱头段的〈SHUTTERSPEEDS的主题〉、来自乐团首只专辑的〈HAPPYSWING〉、集合50名GLAY好友的〈I‘minLove〉以及去年全国播放电影之主题曲〈pure soul〉等,都是值得一听的昔日佳选。此外,有部份歌曲更是特别版本,譬如加插尾段结Solo的〈困惑(Jetthe Phantom)〉、最尾B部份完全不同的〈BE WITH YOU〉和取自Video Single版的〈SURVIVAL〉。

如果阁下是这一两年起才喜欢GLAY,应该会发觉市面上已很难买回他们的旧作如〈BE A Tout!〉及〈BELOVED〉了,原因是与版权问题有关。所以,这张新精选专辑对所有乐迷来说,都是有收藏价值的,新听众可以感受及重温自己喜欢的乐团,旧拥趸亦可一气呵成品尝7年来GLAY的成就,一举两得。
------------------------
日本的CD质量就是好,用ape压缩后都有400多MB,汗……
CD盒设置得简洁厚实
不像中国一些CD弄得花哨无比音质又不好
这张专集的“DRIVE.GLAY.complete.BEST”是印刷在CD盒上的塑料面,而不是歌词本上,蛮有特色的。
------------------------
希望大家下载后继续分流谢谢。
------------------------
由于CD1的第九首歌曲名里面有双引号,导致了CD1的cue的错误,手动把cue第九首Moden后面多余的一个双引号去掉或改成单引号即可。这不是我的错啊,纯属意外。

更正的cue如下:


PERFORMER "GLAY"
TITLE "DRIVE.GLAY.complete.BEST CD1"
FILE "GLAY.-.[DRIVE.GLAY.complete.BEST CD1].专辑.(APE).ape" WAVE
TRACK 01 AUDIO
TITLE "とまどい(Jet the Phantom)"
PERFORMER "GLAY"
INDEX 01 00:00:00
TRACK 02 AUDIO
TITLE "口唇"
PERFORMER "GLAY"
INDEX 01 05:14:05
TRACK 03 AUDIO
TITLE "SHUTTER SPEEDSのテーマ"
PERFORMER "GLAY"
INDEX 01 08:50:00
TRACK 04 AUDIO
TITLE "ずっと二人で..."
PERFORMER "GLAY"
INDEX 00 12:16:28
INDEX 01 12:16:50
TRACK 05 AUDIO
TITLE "グロリアス"
PERFORMER "GLAY"
INDEX 00 19:22:57
INDEX 01 19:23:10
TRACK 06 AUDIO
TITLE "a BOY~ずっと忘れない~"
PERFORMER "GLAY"
INDEX 01 24:16:72
TRACK 07 AUDIO
TITLE "生きてく强さ"
PERFORMER "GLAY"
INDEX 01 29:07:67
TRACK 08 AUDIO
TITLE "HAPPY SWING"
PERFORMER "GLAY"
INDEX 01 33:02:47
TRACK 09 AUDIO
TITLE "彼女の'Modern...'"
PERFORMER "GLAY"
INDEX 01 38:15:17
TRACK 10 AUDIO
TITLE "SOUL LOVE"
PERFORMER "GLAY"
INDEX 00 42:44:09
INDEX 01 42:44:40
TRACK 11 AUDIO
TITLE "HOWEVER"
PERFORMER "GLAY"
INDEX 00 47:14:47
INDEX 01 47:15:02
TRACK 12 AUDIO
TITLE "I'm in Love"
PERFORMER "GLAY"
INDEX 00 52:50:25
INDEX 01 52:50:32



专辑曲目

DISC 1

01.とまどい(Jet the Phantom)
02.口唇
03.SHUTTER SPEEDSのテーマ
04.ずっと二人で・・・
05.グロリアス
06.a BOY~ずっと忘れない~
07.生きてく强さ
08.HAPPY SWING
09.彼女の"Modern・・・"
10.SOUL LOVE
11.HOWEVER
12.I'm in Love

DISC 2

01.诱惑
02.生きがい
03.ビリビリクラッシュメン
04.BELOVED
05.HAPPINESS
06.サバイバル
07.pure soul
08.BE WITH YOU
09.Winter,again
10.春を爱する人
11.SPECIAL THANKS
12.Missing You

正在读取……

这里是其它用户补充的资源(我也要补充):

暂无补充资源
正在加载,请稍等...

点击查看所有10网友评论

 

(?) [公告]留口水、评论相关规则 | [活动]每日签到 轻松领取电驴经验

    小贴士:
  1. 类似“顶”、“沙发”之类没有营养的文字,对勤劳贡献的楼主来说是令人沮丧的反馈信息。
  2. 提问之前请再仔细看一遍楼主的说明,或许是您遗漏了。
  3. 勿催片。请相信驴友们对分享是富有激情的,如果确有更新版本,您一定能搜索到。
  4. 请勿到处挖坑绊人、招贴广告。既占空间让人厌烦,又没人会搭理,于人于己都无利。
  5. 如果您发现自己的评论不见了,请参考以上4条。