v

您的位置:VeryCD音乐日韩音乐

音乐资源事务区


宇多田光(Utada Hikaru) -《无限漫游》(Traveling)单曲[APE]

  • 状态: 精华资源
  • 摘要:
    发行时间2001年
    地区日本
    语言日语
  • 时间: 2007/06/28 10:53:14 发布 | 2007/07/24 08:40:11 更新
  • 分类: 音乐  日韩音乐 

大头猫米

精华资源: 77

全部资源: 82

相关: 分享到新浪微博   转播到腾讯微博   分享到开心网   分享到人人   分享到QQ空间   订阅本资源RSS更新   美味书签  subtitle
该内容尚未提供权利证明,无法提供下载。
专辑中文名无限漫游
专辑英文名Traveling
资源格式APE
版本单曲
发行时间2001年
地区日本
语言日语
简介

IPB Image


专集介绍:

档案来源:原创供档
供档方式:自供档


VeryCD里面宇多田光的资源ape格式的很少,所以发布这张EP上来
(以后会陆续发布宇多田的Ape,呵呵)
宇多田的Ep的质量向来有口皆碑,同一首歌的不同版本各有不同感觉
一定要用ape来听才爽,建议刻盘在音响上播放,PC的声音实在不敢恭维
这张专集包含了四个版本的“Traveling”
第一个是打榜的Traveling,当时宇多田是在消失8个月后复出推出该单曲
所以宇多田fans对该单曲都是很了解的
国内也引进了该专集,不需要去买打孔蝶了:)
第四首是第一首的伴奏版,除去宇多田的歌声外和第一首完全一样
我个人觉得这个纯伴奏版本比第一个有宇多田歌声的版本还要好听……
喜欢宇多田的朋友不要错过
-----------------
下载不到cue的朋友用以下文本,存为cue文件即可

引用
PERFORMER "宇多田光(Hikaru Utada)"
TITLE "Traveling"
FILE "宇多田光.-.[Traveling].单曲.(APE).ape" WAVE
TRACK 01 AUDIO
TITLE "Traveling"
PERFORMER "宇多田光(Hikaru Utada)"
INDEX 01 00:00:00
TRACK 02 AUDIO
TITLE "Traveling -PLANITb remix-"
PERFORMER "宇多田光(Hikaru Utada)"
INDEX 01 05:17:30
TRACK 03 AUDIO
TITLE "Traveling -Bahiatronic Mix-"
PERFORMER "宇多田光(Hikaru Utada)"
INDEX 01 15:51:68
TRACK 04 AUDIO
TITLE "Traveling -Original Karaoke-"
PERFORMER "宇多田光(Hikaru Utada)"
INDEX 01 22:33:45


分享团队:HDLF高清雷锋



专辑曲目

01.Traveling
02.Traveling -PLANITb remix-
03.Traveling -Bahiatronic Mix-
04.Traveling -Original Karaoke-

正在读取……

这里是其它用户补充的资源(我也要补充):

暂无补充资源
正在加载,请稍等...

点击查看所有16网友评论

 

(?) [公告]留口水、评论相关规则 | [活动]每日签到 轻松领取电驴经验

    小贴士:
  1. 类似“顶”、“沙发”之类没有营养的文字,对勤劳贡献的楼主来说是令人沮丧的反馈信息。
  2. 提问之前请再仔细看一遍楼主的说明,或许是您遗漏了。
  3. 勿催片。请相信驴友们对分享是富有激情的,如果确有更新版本,您一定能搜索到。
  4. 请勿到处挖坑绊人、招贴广告。既占空间让人厌烦,又没人会搭理,于人于己都无利。
  5. 如果您发现自己的评论不见了,请参考以上4条。