v

您的位置:VeryCD音乐日韩音乐

音乐资源事务区


宇多田光 -《光》(Hikaru)单曲[APE]

  • 状态: 精华资源
  • 摘要:
    发行时间2002年
    地区大陆
    语言日语
  • 时间: 2007/06/28 10:52:35 发布 | 2007/07/24 06:53:28 更新
  • 分类: 音乐  日韩音乐 

大头猫米

精华资源: 77

全部资源: 82

相关: 分享到新浪微博   转播到腾讯微博   分享到开心网   分享到人人   分享到QQ空间   订阅本资源RSS更新   美味书签  subtitle
该内容尚未提供权利证明,无法提供下载。
专辑中文名
专辑英文名Hikaru
歌手宇多田光
资源格式APE
版本单曲
发行时间2002年
地区大陆
语言日语
简介

IPB Image


专集介绍:

档案来源:原创供档
供档方式:自供档


VeryCD里面宇多田光的资源ape格式的很少,所以发布这张EP上来
(以后会陆续发布宇多田的Ape,呵呵)
宇多田的Ep的质量向来有口皆碑,同一首歌的不同版本各有不同感觉
一定要用ape来听才爽,建议刻盘在音响上播放,PC的声音实在不敢恭维
这张封面的宇多田是我最喜欢的
喜欢宇多田的朋友不要错过
----------------
cue貌似无源了,可以使用以下文本

引用
PERFORMER "宇多田光"
REM GENRE R&B
REM DATE 2002
TITLE "光"
FILE "宇多田光.-.[光].单曲.(APE).ape" WAVE
TRACK 01 AUDIO
TITLE "光"
PERFORMER "宇多田光"
INDEX 01 00:00:00
TRACK 02 AUDIO
TITLE "光(PLANITb Remix)"
PERFORMER "宇多田光"
INDEX 00 05:01:34
INDEX 01 05:04:00
TRACK 03 AUDIO
TITLE "光(Godson Mix)"
PERFORMER "宇多田光"
INDEX 00 10:47:14
INDEX 01 10:49:52
TRACK 04 AUDIO
TITLE "光(Original Karaoke)"
PERFORMER "宇多田光"
INDEX 00 15:26:23
INDEX 01 15:28:60



专辑曲目

01.光
02.光(PLANITb Remix)
03.光(Godson Mix)
04.光(Original Karaoke)

正在读取……

这里是其它用户补充的资源(我也要补充):

暂无补充资源
正在加载,请稍等...

点击查看所有16网友评论

 

(?) [公告]留口水、评论相关规则 | [活动]每日签到 轻松领取电驴经验

    小贴士:
  1. 类似“顶”、“沙发”之类没有营养的文字,对勤劳贡献的楼主来说是令人沮丧的反馈信息。
  2. 提问之前请再仔细看一遍楼主的说明,或许是您遗漏了。
  3. 勿催片。请相信驴友们对分享是富有激情的,如果确有更新版本,您一定能搜索到。
  4. 请勿到处挖坑绊人、招贴广告。既占空间让人厌烦,又没人会搭理,于人于己都无利。
  5. 如果您发现自己的评论不见了,请参考以上4条。