v

您的位置:VeryCD动漫动漫周边

动漫资源事务区


《魔神英雄传原声音乐》(Wataru)[魔神英雄伝 SINGLE COLLECTION][BEST][WAV]

  • 状态: 精华资源
  • 摘要:
    发行时间1997年12月03日
    对白语言日语
  • 时间: 2006/02/16 03:54:56 发布 | 2006/02/16 03:54:56 更新
  • 分类: 动漫  动漫周边 

风林水山

精华资源: 311

全部资源: 316

相关: 分享到新浪微博   转播到腾讯微博   分享到开心网   分享到人人   分享到QQ空间   订阅本资源RSS更新   美味书签  subtitle
该内容尚未提供权利证明,无法提供下载。
中文名魔神英雄传原声音乐
英文名Wataru
别名魔神英雄伝ワタル
版本[魔神英雄伝 SINGLE COLLECTION][BEST][WAV]
发行时间1997年12月03日
地区日本
对白语言日语
简介

IPB Image
http://www.ahcomic.com/download/upload_img/10b2314ba85f3db6938474405ecb95e1.jpg

【动画简介】:

经过创界山和星界山等旅程之后, 战部WATAR(飞云)已回到了人间过着普通小学生的生活。可是有一天, WATARU突然感到了创界山再次有大危机, 龙神丸没有出现, 渡亦无法去到创界山了。这一个晚上, 渡一直感到忐忑不安。就在此时, 虎王竟乘着飞马出现在满月之中, 并带领WATARU回创界山。但当他们一进入神部界时, 虎王却在一股强光中消失了。当WATARU回到神部界后, 发觉创界山被炸毁了一个缺口, 而七色龙神正把山支撑着。原来是魔界之扉的封印被解开, 而WATARU今次遇到的强大敌人就是阎罗王...

【专辑介绍】:

http://images-jp.amazon.com/images/P/B00005GXK8.09._OU09_PE05_SCMZZZZZZZ_.jpg

CD (1997/12/03)
ディスク枚数: 1
ビクターエンタテインメント - ASIN: B00005GXK8

【专辑曲目】:

1.ステップ
2.a chi-a chiアドベンチャー
3.ステップ・バイ・ステップ
4.君に止まらない~マイ・ガール,マイ・ラヴ
5.ファイト!
6.虹の彼方に
7.もう一つの卒業
8.グッバイ・フォーエヴァー
9.ローング・ナンバー
10.パワー
11.チャレンジャー
12.涙のセカンド・ボタン
13.ストレイト・アイズ
14.僕は君を信じてる
15.君が生まれる日
16.サン・シャイン・ムーン・シャイン
17.永遠の扉
18.ハートの呪文

引用
CATALOG 4988002359783
PERFORMER "魔神英雄伝ワタル"
TITLE "魔神英雄伝ワタル シングルコレクション 1988 may - 1993 sept."
FILE "SINGLECOLLECTION.wav" WAVE
TRACK 01 AUDIO
TITLE "Step"
PERFORMER "魔神英雄伝ワタル"
ISRC JPVI08801280
INDEX 00 00:00:00
INDEX 01 00:00:37
TRACK 02 AUDIO
TITLE "a chi a chi アドベンチャー"
PERFORMER "魔神英雄伝ワタル"
ISRC JPVI08801290
INDEX 00 04:16:63
INDEX 01 04:18:22
TRACK 03 AUDIO
TITLE "Step by Step"
PERFORMER "魔神英雄伝ワタル"
ISRC JPVI09000770
INDEX 00 08:48:43
INDEX 01 08:51:02
TRACK 04 AUDIO
TITLE "君に止まらない ~MY GIRL, MY LOVE~"
PERFORMER "魔神英雄伝ワタル"
ISRC JPVI09000780
INDEX 00 12:56:58
INDEX 01 12:59:17
TRACK 05 AUDIO
TITLE "Fight!"
PERFORMER "魔神英雄伝ワタル"
ISRC JPVI09010100
INDEX 00 16:28:63
INDEX 01 16:31:22
TRACK 06 AUDIO
TITLE "虹の彼方に"
PERFORMER "魔神英雄伝ワタル"
ISRC JPVI09010110
INDEX 00 19:59:51
INDEX 01 20:02:10
TRACK 07 AUDIO
TITLE "もう一つの卒業"
PERFORMER "魔神英雄伝ワタル"
ISRC JPVI09010150
INDEX 00 24:14:21
INDEX 01 24:16:55
TRACK 08 AUDIO
TITLE "Good-bye Forever"
PERFORMER "魔神英雄伝ワタル"
ISRC JPVI09011410
INDEX 00 28:46:61
INDEX 01 28:49:20
TRACK 09 AUDIO
TITLE "WRONG NUMBER"
PERFORMER "魔神英雄伝ワタル"
ISRC JPVI09106380
INDEX 00 33:24:16
INDEX 01 33:26:50
TRACK 10 AUDIO
TITLE "POWER"
PERFORMER "魔神英雄伝ワタル"
ISRC JPVI09114960
INDEX 00 38:22:48
INDEX 01 38:25:07
TRACK 11 AUDIO
TITLE "Challenger"
PERFORMER "魔神英雄伝ワタル"
ISRC JPVI09114970
INDEX 00 42:47:53
INDEX 01 42:50:12
TRACK 12 AUDIO
TITLE "涙のセカンド·ボタン"
PERFORMER "魔神英雄伝ワタル"
ISRC JPVI09121780
INDEX 00 46:23:18
INDEX 01 46:25:52
TRACK 13 AUDIO
TITLE "Straight Eyes"
PERFORMER "魔神英雄伝ワタル"
ISRC JPVI09121790
INDEX 00 50:25:66
INDEX 01 50:28:25
TRACK 14 AUDIO
TITLE "僕は君を信じてる"
PERFORMER "魔神英雄伝ワタル"
ISRC JPVI09206610
INDEX 00 54:09:66
INDEX 01 54:12:25
TRACK 15 AUDIO
TITLE "君が生まれる日"
PERFORMER "魔神英雄伝ワタル"
ISRC JPVI09225470
INDEX 00 58:27:31
INDEX 01 58:29:65
TRACK 16 AUDIO
TITLE "Sun shine Moon shine"
PERFORMER "魔神英雄伝ワタル"
ISRC JPVI09225480
INDEX 00 62:33:33
INDEX 01 62:35:67
TRACK 17 AUDIO
TITLE "永遠の扉"
PERFORMER "魔神英雄伝ワタル"
ISRC JPVI09316190
INDEX 00 67:25:38
INDEX 01 67:27:72
TRACK 18 AUDIO
TITLE "ハートの呪文"
PERFORMER "魔神英雄伝ワタル"
ISRC JPVI09316200
INDEX 00 72:18:26
INDEX 01 72:20:60


【服务器】:Popgo Anime Server ed2k://|server|61.145.112.13|3721|/
【共享时间】:7*23 除计划关机和断电外一般开机

正在读取……

这里是其它用户补充的资源(我也要补充):

暂无补充资源
正在加载,请稍等...

点击查看所有25网友评论

 

(?) [公告]留口水、评论相关规则 | [活动]每日签到 轻松领取电驴经验

    小贴士:
  1. 类似“顶”、“沙发”之类没有营养的文字,对勤劳贡献的楼主来说是令人沮丧的反馈信息。
  2. 提问之前请再仔细看一遍楼主的说明,或许是您遗漏了。
  3. 勿催片。请相信驴友们对分享是富有激情的,如果确有更新版本,您一定能搜索到。
  4. 请勿到处挖坑绊人、招贴广告。既占空间让人厌烦,又没人会搭理,于人于己都无利。
  5. 如果您发现自己的评论不见了,请参考以上4条。