v

您的位置:VeryCD音乐华语音乐

音乐资源事务区


张国荣 -《跨越97演唱会》[APE]

大头猫米

精华资源: 77

全部资源: 82

相关: 分享到新浪微博   转播到腾讯微博   分享到开心网   分享到人人   分享到QQ空间   订阅本资源RSS更新   美味书签  subtitle
该内容尚未提供权利证明,无法提供下载。
专辑中文名跨越97演唱会
歌手张国荣
资源格式APE
发行时间2004年
简介

IPB Image


专辑名称:
跨越97演唱会
专辑歌手:张国荣
发行日期:2002

专辑介绍:

由《风继续吹》,《红颜白发》,《风再起时》重新编曲串成的开场音乐拉开了张国荣“跨越97演唱会”的序幕。整场演唱会中张国荣演唱了《爱慕》、《侧面》、《今生今世》、《当爱已成往事》等近40首经典曲目。当《红》的暧昧节奏在红馆中响起,脚蹬一双大红高跟鞋的张国荣与男舞蹈员跳起了贴面艳舞,刹那间台下观众群情汹涌,香港演唱会历史上最具冲击力的一幕上演了。演唱会从听觉和视觉上都给死水一潭的香港乐坛带来了强烈的冲击,在演唱会上张国荣公开感谢唐先生,并献上一首《月亮代表我的心》,同性恋身份表露无遗,强烈震撼了抱残守缺的传统人士。这是张国荣复出歌坛首个演唱会,最漂亮的声音、最high的状态、最完美最令人目眩的表演令其成为香港演唱会中绝顶的经典
现如今,人已去,当我们回顾这场充满华丽色彩的演唱会时,心中充满惆怅,是哥哥把这一首首歌唱成了经典,而这些让人刻骨铭心的歌曲又使哥哥成为了不朽.
cd2的cue未下载完的朋友请查看14楼的回复
本专集的cue在Winamp下使用可能有点小问题,用Foobar就可以正常播放
------------------------
免责声明:本专集仅供试听,所有版权归原唱片公司及发行商所有,支持华语音乐,请购买正版
------------------------
服务器一般在DonkeySever No.2
希望大家下载后继续分流谢谢。
-------------------------
本资源的Cue文件经过测试,在新版的Foobar上无法播放,本人进行了修正:请重新下载或者使用以下文本作为Cue

引用

PERFORMER "张国荣"
TITLE "张国荣跨越97演唱会cd1"
FILE "张国荣.-.[跨越97演唱会cd1].专辑.(APE).ape" WAVE
TRACK 01 AUDIO
TITLE "前奏"
PERFORMER "张国荣"
INDEX 01 00:00:00
REM GENRE Pop
REM DATE 1997
TRACK 02 AUDIO
TITLE "风再起时"
PERFORMER "张国荣"
INDEX 01 02:15:00
REM GENRE Pop
REM DATE 1997
TRACK 03 AUDIO
TITLE "今生今世"
PERFORMER "张国荣"
INDEX 01 03:13:00
REM DISCID 6e0a230a
REM GENRE Pop
REM DATE 1997
TRACK 04 AUDIO
TITLE "恋爱交叉 打开信箱 蓝色忧郁 黑色午夜 Monica"
PERFORMER "张国荣"
INDEX 01 06:51:00
REM GENRE Pop
REM DATE 1997
TRACK 05 AUDIO
TITLE "柔情蜜意"
PERFORMER "张国荣"
INDEX 01 16:03:00
REM GENRE Pop
REM DATE 1997
TRACK 06 AUDIO
TITLE "爱慕"
PERFORMER "张国荣"
INDEX 01 18:58:00
REM GENRE Pop
REM DATE 1997
TRACK 07 AUDIO
TITLE "侧面"
PERFORMER "张国荣"
INDEX 01 25:14:00
REM GENRE Pop
REM DATE 1997
TRACK 08 AUDIO
TITLE "侬本多情"
PERFORMER "张国荣"
INDEX 01 29:10:00
REM GENRE Pop
REM DATE 1997
TRACK 09 AUDIO
TITLE "有心人"
PERFORMER "张国荣"
INDEX 01 32:57:00
REM GENRE Pop
REM DATE 1997
TRACK 10 AUDIO
TITLE "阿飞正传 梦 A thousand Dreams of You"
PERFORMER "张国荣"
INDEX 01 40:55:30
REM GENRE Pop
REM DATE 1997
TRACK 11 AUDIO
TITLE "啼笑姻缘 当爱已成往事 啼笑姻缘"
PERFORMER "张国荣"
INDEX 01 44:12:00
REM GENRE Pop
REM DATE 1997
TRACK 12 AUDIO
TITLE "怪你过分美丽"
PERFORMER "张国荣"
INDEX 01 48:20:00
REM GENRE Pop
REM DATE 1997
TRACK 13 AUDIO
TITLE "风继续吹"
PERFORMER "张国荣"
INDEX 01 52:54:00
REM GENRE Pop
REM DATE 1997

引用

PERFORMER "张国荣"
TITLE "张国荣跨越97演唱会cd2"
FILE "张国荣.-.[跨越97演唱会cd2].专辑.(APE).ape" WAVE
TRACK 01 AUDIO
TITLE "只怕不再遇上"
PERFORMER "张国荣&莫文蔚"
FLAGS PRE
INDEX 01 00:00:00
REM DATE 1997
REM GENRE Pop
TRACK 02 AUDIO
TITLE "怨男"
PERFORMER "张国荣"
FLAGS PRE
INDEX 01 02:15:00
REM DATE 1997
REM GENRE Po
TRACK 03 AUDIO
TITLE "热辣辣"
PERFORMER "张国荣"
FLAGS PRE
INDEX 01 07:28:00
REM DATE 1997
REM GENRE Pop
REM DISCID 6e0a230a
REM WM/MediaPrimaryClassID {D1607DBC-E323-4BE2-86A1-48A42A28441E}
REM uniquefileidentifier ;
REM provider User Feedback
TRACK 04 AUDIO
TITLE "深情相拥"
PERFORMER "张国荣&辛晓琪"
FLAGS PRE
INDEX 01 11:05:00
REM DATE 1997
REM GENRE Pop
TRACK 05 AUDIO
TITLE "谈情说爱"
PERFORMER "张国荣"
FLAGS PRE
INDEX 01 14:48:00
REM DATE 1997
REM GENRE Pop
TRACK 06 AUDIO
TITLE "红颜白发 最爱"
PERFORMER "张国荣"
FLAGS PRE
INDEX 01 18:42:00
REM DATE 1997
REM GENRE Pop
TRACK 07 AUDIO
TITLE "明星"
PERFORMER "张国荣"
FLAGS PRE
INDEX 01 21:38:00
REM DATE 1997
REM GENRE Pop
TRACK 08 AUDIO
TITLE "红"
PERFORMER "张国荣"
FLAGS PRE
INDEX 01 26:49:00
REM DATE 1997
REM GENRE Pop
TRACK 09 AUDIO
TITLE "为你钟情"
PERFORMER "张国荣"
FLAGS PRE
INDEX 01 34:08:00
REM DATE 1997
REM GENRE Pop
TRACK 10 AUDIO
TITLE "月亮代表我的心"
PERFORMER "张国荣"
FLAGS PRE
INDEX 01 37:33:00
REM DATE 1997
REM GENRE Pop
TRACK 11 AUDIO
TITLE "追"
PERFORMER "张国荣"
FLAGS PRE
INDEX 01 41:52:00
REM DATE 1997
REM GENRE Pop


分享团队:HDLF高清雷锋



专辑曲目

CD 1

01.前奏
02.风再起时
03.令生今世
04.medley:恋爱交叉,打开信箱,蓝色忧郁,黑色午夜
05.柔情蜜意
06.爱慕
07.侧面
08.侬本多情
09.有心人
10.电影medley:阿飞正传,梦
11.啼笑姻缘+当爱已成往事+啼笑姻缘
12.怪你过份美丽
13.风继续吹

CD 2

01.怨男
02.想你+偷情
03.谈情说爱
04.红颜白发+最爱
05.明星
06.红
07.跨越97倒数联欢
08.月亮代表我的心
09.为你钟情
10.月亮代表我的心
11.追

正在读取……

这里是其它用户补充的资源(我也要补充):

暂无补充资源
正在加载,请稍等...

点击查看所有39网友评论

 

(?) [公告]留口水、评论相关规则 | [活动]每日签到 轻松领取电驴经验

    小贴士:
  1. 类似“顶”、“沙发”之类没有营养的文字,对勤劳贡献的楼主来说是令人沮丧的反馈信息。
  2. 提问之前请再仔细看一遍楼主的说明,或许是您遗漏了。
  3. 勿催片。请相信驴友们对分享是富有激情的,如果确有更新版本,您一定能搜索到。
  4. 请勿到处挖坑绊人、招贴广告。既占空间让人厌烦,又没人会搭理,于人于己都无利。
  5. 如果您发现自己的评论不见了,请参考以上4条。