v

您的位置:VeryCD音乐其它音乐

音乐资源事务区


V.A -《灵感瞬间 II》(Inspirational Moments II)[APE]

  • 状态: 精华资源
  • 摘要:
    发行时间1999年
  • 时间: 2006/03/11 20:43:12 发布 | 2006/03/11 20:43:12 更新
  • 分类: 音乐  其它音乐 

chenyuanquan

精华资源: 97

全部资源: 100

相关: 分享到新浪微博   转播到腾讯微博   分享到开心网   分享到人人   分享到QQ空间   订阅本资源RSS更新   美味书签  subtitle
该内容尚未提供权利证明,无法提供下载。
专辑中文名灵感瞬间 II
专辑英文名Inspirational Moments II
艺术家V.A
资源格式APE
发行时间1999年
简介

IPB Image


专辑介绍:

这是一张汇集了多张经典CD名曲的精选集,在网路上很难找到有关它的介绍,但它的音质及内容是值得极力推荐的!空灵而积极的风格别出心裁,来自世界各国传统的地道韵味及其上乘的旋律竟是让人如痴似醉!日常生活中带来的疲倦在它的旋律中荡然无存……

非常轰动的NEWAGE经典合集,几乎每一首都是极品,相信你听完绝对会沉浸在音乐的感动与喜悦中。

增加mp3格式,曲目一样,有需要的朋友们可以下载!

感谢原发布者:xuchuan011

代码

PERFORMER "发烧靓碟之二"
TITLE "火山"
FILE "V.A.-.[Inspirational.Moments.II].专辑.(ape).ape" WAVE
  TRACK 01 AUDIO
    TITLE "Track01"
    PERFORMER "发烧靓碟之二"
    INDEX 01 00:00:00
  TRACK 02 AUDIO
    TITLE "Track02"
    PERFORMER "发烧靓碟之二"
    INDEX 00 03:12:69
    INDEX 01 03:13:70
  TRACK 03 AUDIO
    TITLE "Track03"
    PERFORMER "发烧靓碟之二"
    INDEX 00 08:58:19
    INDEX 01 08:59:20
  TRACK 04 AUDIO
    TITLE "Track04"
    PERFORMER "发烧靓碟之二"
    INDEX 00 14:23:11
    INDEX 01 14:24:12
  TRACK 05 AUDIO
    TITLE "Track05"
    PERFORMER "发烧靓碟之二"
    INDEX 00 19:22:19
    INDEX 01 19:23:20
  TRACK 06 AUDIO
    TITLE "Track06"
    PERFORMER "发烧靓碟之二"
    INDEX 00 23:24:06
    INDEX 01 23:25:07
  TRACK 07 AUDIO
    TITLE "Track07"
    PERFORMER "发烧靓碟之二"
    INDEX 00 27:55:20
    INDEX 01 27:56:20
  TRACK 08 AUDIO
    TITLE "Track08"
    PERFORMER "发烧靓碟之二"
    INDEX 00 32:26:26
    INDEX 01 32:27:27
  TRACK 09 AUDIO
    TITLE "Track09"
    PERFORMER "发烧靓碟之二"
    INDEX 00 36:16:29
    INDEX 01 36:17:30
  TRACK 10 AUDIO
    TITLE "Track10"
    PERFORMER "发烧靓碟之二"
    INDEX 00 40:49:69
    INDEX 01 40:50:70
  TRACK 11 AUDIO
    TITLE "Track11"
    PERFORMER "发烧靓碟之二"
    INDEX 00 43:09:69
    INDEX 01 43:10:70
  TRACK 12 AUDIO
    TITLE "Track12"
    PERFORMER "发烧靓碟之二"
    INDEX 00 47:07:24
    INDEX 01 47:08:25
  TRACK 13 AUDIO
    TITLE "Track13"
    PERFORMER "发烧靓碟之二"
    INDEX 00 50:38:39
    INDEX 01 50:39:40
  TRACK 14 AUDIO
    TITLE "Track14"
    PERFORMER "发烧靓碟之二"
    INDEX 00 55:48:69
    INDEX 01 55:49:70
  TRACK 15 AUDIO
    TITLE "Track15"
    PERFORMER "发烧靓碟之二"
    INDEX 00 60:34:49
    INDEX 01 60:35:50
  TRACK 16 AUDIO
    TITLE "Track16"
    PERFORMER "发烧靓碟之二"
    INDEX 00 64:53:14
    INDEX 01 64:54:15
  TRACK 17 AUDIO
    TITLE "Track17"
    PERFORMER "发烧靓碟之二"
    INDEX 00 68:29:69
    INDEX 01 68:30:70
  TRACK 18 AUDIO
    TITLE "Track18"
    PERFORMER "发烧靓碟之二"
    INDEX 00 71:48:19
    INDEX 01 71:49:20



专辑曲目

1.Secret Garden---Nocturne
2.Yanni---Nightingale
3.Sarah Brightman---Naturaleza Muerta
4.Enigma---Beyond The Invisible
5.Craig Armstrong---This Love
6.Vnessa-Mae---I'm a Doun
7.Emma Shapplin---Spente Le Stelle
8.Bara Basikova---Veni Domine
9.Madredens---Haija O Que Houver
10.Mediaeval Baebes---Ah si Mon Moine
11.Abiemus/Karl Jenkins---Cantus-Song Of Tears'
12.Edea---Hera
13.Shabin&Sepehr---Lost Words
14.Argo---Argo
15.Criara---Criara
16.Siva Pacifica---Mana (Part 2)
17.Govinda---A modern Mantra
18.Era---Ameno

正在读取……

这里是其它用户补充的资源(我也要补充):

暂无补充资源
正在加载,请稍等...

点击查看所有22网友评论

 

(?) [公告]留口水、评论相关规则 | [活动]每日签到 轻松领取电驴经验

    小贴士:
  1. 类似“顶”、“沙发”之类没有营养的文字,对勤劳贡献的楼主来说是令人沮丧的反馈信息。
  2. 提问之前请再仔细看一遍楼主的说明,或许是您遗漏了。
  3. 勿催片。请相信驴友们对分享是富有激情的,如果确有更新版本,您一定能搜索到。
  4. 请勿到处挖坑绊人、招贴广告。既占空间让人厌烦,又没人会搭理,于人于己都无利。
  5. 如果您发现自己的评论不见了,请参考以上4条。