v

您的位置:VeryCD音乐古典音乐

音乐资源事务区


Showcase -《OPUS3-TEST CD 5》[APE]

  • 状态: 精华资源
  • 摘要:
    发行时间2000年
  • 时间: 2006/01/15 02:55:12 发布 | 2006/01/15 02:55:12 更新
  • 分类: 音乐  古典音乐 

梦里他乡

精华资源: 28

全部资源: 29

相关: 分享到新浪微博   转播到腾讯微博   分享到开心网   分享到人人   分享到QQ空间   订阅本资源RSS更新   美味书签  subtitle
该内容尚未提供权利证明,无法提供下载。
专辑中文名OPUS3-TEST CD 5
艺术家Showcase
资源格式APE
发行时间2000年
地区瑞典
语言英语
简介

IPB Image


专辑介绍∶

  Opus3从LP时代就一直有示范测试片,也一直都是音响迷们拼死以求的收藏。在CD时代,Opus3以一张Test CD4.1轰动武林,而到了2000年,他们再接再厉推出这张Showcase,虽然在标题上没有明说,却可算是Opus3 Test CD5。其实早在CD时代这张唱片就已经造成许多发烧友抢购,到最近Opus3更将原始的类比母带转为SACD发行,在CD唱盘与SACD唱盘上都可享受到超卓的音效!

  所有Opus3的唱片都由老闆Jan-Eric Persson操刀录音,只使用一个单点立体声麦克风配置,因此事前寻找录音场地、现场寻找麦克风的摆放位置,变成最重要的工作。这也就是为何唱片的副标题要强调这是「优异空间的自然发声乐器」,因为这正是Opus3录音之所以扬名利万的最佳武器!这些录音除了第一轨的现场演奏录音是完成於1976年外,其他的录音都在1994至1999年之间完成。

  你只要亲自听过这张CD在优秀音响系统上的表现,你就知道为什么发烧音乐唱片厂虽多如过江之鯽,Opus3却能够多年一路走来始终屹立不摇,因为他们的录音实在太精采、太美、太逼真了!所有的录音都充满了现场空间的真实气息,场内乐手的相对位置与各种细微动作清楚如在眼前,毫无人工混音的不自然感。如果你聆听这些音乐没有感受到你被传送到录音现场,那就是自己应该多检讨多下工夫改善音响系统了!

  感谢liangyonghttp://lib.VeryCD.com/2006/01/11/0000084216.html中提供的介绍。
  
  在liangyong的帖子中见有人求此APE,在手上也已经很久了(非本人原抓)。另外手上还有TEST CD 4.1,有空再放出。本人非音响发烧友,TEST CD系列仅有这两个APE。

  附上CUE文件,以备用

代码
PERFORMER "Showcase"
TITLE "opus 3"
FILE "OPUS3.-.[TEST.CD.5].专辑.(ape).ape" WAVE
  TRACK 01 AUDIO
    TITLE "V. Duke / J.Gershwin - I Can't Get Started"
    PERFORMER "Showcase"
    INDEX 01 00:00:00
  TRACK 02 AUDIO
    TITLE "E. Bibb / Where The Green Grass Grows"
    PERFORMER "Showcase"
    INDEX 01 05:15:50
  TRACK 03 AUDIO
    TITLE "G. Wennerbrandt / O. Eriksson - Vaquero"
    PERFORMER "Showcase"
    INDEX 01 09:45:05
  TRACK 04 AUDIO
    TITLE "Lewinson / Symes-Neiburg - The Talk Of The Town"
    PERFORMER "Showcase"
    INDEX 01 16:57:40
  TRACK 05 AUDIO
    TITLE "?hman / Gustavsson-Vinding-Dahlberg - Blues Opus 3"
    PERFORMER "Showcase"
    INDEX 01 23:57:00
  TRACK 06 AUDIO
    TITLE "Troup / Worth - Yhe Meaning Of The Blues"
    PERFORMER "Showcase"
    INDEX 00 28:31:32
    INDEX 01 28:32:35
  TRACK 07 AUDIO
    TITLE "H. Nyman / O Ango Tango"
    PERFORMER "Showcase"
    INDEX 01 37:14:62
  TRACK 08 AUDIO
    TITLE "Brown / Tobias - Comes Love"
    PERFORMER "Showcase"
    INDEX 00 41:58:20
    INDEX 01 41:59:72
  TRACK 09 AUDIO
    TITLE "Trad. - I Want Jesus To Walk With Me"
    PERFORMER "Showcase"
    INDEX 00 47:03:18
    INDEX 01 47:04:20
  TRACK 10 AUDIO
    TITLE "J. Sandstr?m / Sanctus"
    PERFORMER "Showcase"
    INDEX 00 51:13:37
    INDEX 01 51:15:45
  TRACK 11 AUDIO
    TITLE "I. Albeniz / Orientale"
    PERFORMER "Showcase"
    INDEX 00 55:01:07
    INDEX 01 55:02:67
  TRACK 12 AUDIO
    TITLE "Bizet / Overture to Carmen"
    PERFORMER "Showcase"
    INDEX 00 58:18:40
    INDEX 01 58:20:47
  TRACK 13 AUDIO
    TITLE "W. Stenhammar / String Quartet no.6, 2nd movement"
    PERFORMER "Showcase"
    INDEX 01 60:39:22
  TRACK 14 AUDIO
    TITLE "Ravel / Bolero"
    PERFORMER "Showcase"
    INDEX 00 63:26:20
    INDEX 01 63:27:60


  即将发布



专辑曲目

01. I Can´t Get Started 我无法开始
02. Where The Green Grass Grows 青草生长之地
03. Vaquero
04. The Talk Of The Town 城里的话题
05. Blues Opus 3 蓝调作品三号
06. The Meaning Of The Blues 蓝调的意义
07. O Ango Tango 昂果探戈
08. Comes Love 爱情来临
09. I Want Jesus To Walk With Me 我希望耶稣与我同行
10. Sanctus 赞美曲
11. Orientale 东方曲
12. Overture the Opera Carmen 卡门序曲
13. String Quartet no.6, 2nd movement 弦乐四重奏作品六号第二乐章
14. Bolero 波丽路

正在读取……

这里是其它用户补充的资源(我也要补充):

暂无补充资源
正在加载,请稍等...

点击查看所有21网友评论

 

(?) [公告]留口水、评论相关规则 | [活动]每日签到 轻松领取电驴经验

    小贴士:
  1. 类似“顶”、“沙发”之类没有营养的文字,对勤劳贡献的楼主来说是令人沮丧的反馈信息。
  2. 提问之前请再仔细看一遍楼主的说明,或许是您遗漏了。
  3. 勿催片。请相信驴友们对分享是富有激情的,如果确有更新版本,您一定能搜索到。
  4. 请勿到处挖坑绊人、招贴广告。既占空间让人厌烦,又没人会搭理,于人于己都无利。
  5. 如果您发现自己的评论不见了,请参考以上4条。