v

您的位置:VeryCD动漫动漫周边

动漫资源事务区


《最终兵器彼女OVA原声音乐》(Saikano OVA)[Another love song OST][APE]

  • 状态: 精华资源
  • 摘要:
    发行时间2005年12月07日
    对白语言日语
  • 时间: 2006/01/10 22:14:01 发布 | 2006/01/10 22:14:01 更新
  • 分类: 动漫  动漫周边 

风林水山

精华资源: 311

全部资源: 316

相关: 分享到新浪微博   转播到腾讯微博   分享到开心网   分享到人人   分享到QQ空间   订阅本资源RSS更新   美味书签  subtitle
该内容尚未提供权利证明,无法提供下载。
中文名最终兵器彼女OVA原声音乐
英文名Saikano OVA
版本[Another love song OST][APE]
发行时间2005年12月07日
地区日本
对白语言日语
简介

IPB Image
http://www.ahcomic.com/download/upload_img/1ac58bed1e1946012144c0aed66382d1.jpg

【专辑介绍】:

OVA 「最終兵器彼女」 オリジナルサウンドトラック

http://www.neowing.co.jp/pictures/s/06/37/TKCA-72961.jpg

商品番号: TKCA-72961
メディア: アルバムCD
組枚数: 1
発売日: 2005/12/07
価格: 2200円(税込)

アーティスト/ キャスト
ビデオ・サントラ (演奏者)  吉川慶 (作曲者) 
井上大輔 (作曲者)  麻倉あきら (アーティスト) 
田形美喜子 (作詞者)  Gary Newby (作詞者) 

内容
OVA「最終兵器彼女」オリジナルサウンドトラック発売!! 「真夜中の虹 ~everlasting love~」ほかBGM、全15曲収録(予定)。
http://www.neowing.co.jp/icons/first_press.gif 初回盤: オリジナルトレーディングカード封入(予定)

【专辑曲目】:

http://img017.photo.wangyou.com/files/2005/12/14/204544/200611369021920_s.jpg

1. Mizuki(Openture)
2. 天空の光神
3. 追憶の恋
4. 英雄たちの行進
5. あの空への想い
6. 守るべきもの
7. 恋の情景
8. 真夜中の虹(Inst)
9. 悲哀の天使
10. 遠い日の朝焼け
11. 破壊神の涙
12. Mizuki
13. Rainbow at Midnight
14. 真夜中の虹(Short Edit)



★☆★【特集】★☆★
http://www.neowing.co.jp/anime/essentials/saikano/img/title.gif

あの日、抱きしめたちせの心臓は、音がしなかった・・・。
多くのファンからアニメ化を熱望されながら、「いいひと。」の原作者高橋しんが
連載終了まで映像化を強く避けてきた
切ないラブストーリー「最終兵器彼女」がついにDVD化!

http://www.neowing.co.jp/anime/essentials/saikano/img/saikano.jpg

STORY

北海道の田舎町に住む高校3年生、シュウジとちせ。 内気でドジで口癖が「ごめんなさい」のちせは、憧れの陸上部のシュウジにやっとの思いで告白する。「強くなりたい」と願うちせと、可愛いと思いつつ照れからつい邪険に扱ってしまい後悔するシュウジ。そんなある日、国籍不明の敵機が札幌を襲い、多数の戦闘機が街を火の海に変えていく。そんな中、敵を次々と撃墜していく謎の物体があった。 それは、体から無機質な羽根と武器を生やし「最終兵器」に変貌していたちせ だった・・・。

引用
REM GENRE Soundtrack
REM DATE 2005
REM DISCID D70A690E
REM COMMENT "ExactAudioCopy v0.95b2"
PERFORMER "吉川 慶"
TITLE "最終兵器彼女 ~Another love song~ ORIGINAL SOUNDTRACK"
FILE "最終兵器彼女 ~Another love song~ ORIGINAL SOUNDTRACK.ape" WAVE
TRACK 01 AUDIO
TITLE "Mizuki(Openture)"
PERFORMER "吉川 慶"
INDEX 01 00:00:00
TRACK 02 AUDIO
TITLE "天空の光神"
PERFORMER "吉川 慶"
INDEX 00 02:38:17
INDEX 01 02:39:60
TRACK 03 AUDIO
TITLE "追憶の恋"
PERFORMER "吉川 慶"
INDEX 00 05:35:37
INDEX 01 05:38:05
TRACK 04 AUDIO
TITLE "英雄たちの行進"
PERFORMER "吉川 慶"
INDEX 00 08:07:62
INDEX 01 08:09:30
TRACK 05 AUDIO
TITLE "あの空への想い"
PERFORMER "吉川 慶"
INDEX 00 10:54:37
INDEX 01 10:57:05
TRACK 06 AUDIO
TITLE "守るべきもの"
PERFORMER "吉川 慶"
INDEX 00 12:49:10
INDEX 01 12:51:52
TRACK 07 AUDIO
TITLE "恋の情景"
PERFORMER "吉川 慶"
INDEX 00 15:14:37
INDEX 01 15:16:05
TRACK 08 AUDIO
TITLE "真夜中の虹(Inst)"
PERFORMER "吉川 慶"
INDEX 00 18:03:62
INDEX 01 18:05:67
TRACK 09 AUDIO
TITLE "悲哀の天使"
PERFORMER "吉川 慶"
INDEX 00 20:59:62
INDEX 01 21:01:30
TRACK 10 AUDIO
TITLE "遠い日の朝焼け"
PERFORMER "吉川 慶"
INDEX 00 23:42:57
INDEX 01 23:44:25
TRACK 11 AUDIO
TITLE "破壊神の涙"
PERFORMER "吉川 慶"
INDEX 00 26:34:02
INDEX 01 26:35:45
TRACK 12 AUDIO
TITLE "Mizuki"
PERFORMER "吉川 慶"
INDEX 00 29:13:70
INDEX 01 29:15:37
TRACK 13 AUDIO
TITLE "Rainbow at Midnight~everlasting love~"
PERFORMER "麻倉あきら"
INDEX 00 33:02:22
INDEX 01 33:04:65
TRACK 14 AUDIO
TITLE "真夜中の虹(Short Edit)"
PERFORMER "麻倉あきら"
INDEX 00 39:53:05
INDEX 01 39:56:47


【服务器】:Popgo Anime Server ed2k://|server|61.145.112.13|3721|/
【共享时间】:7*23 除计划关机和断电外一般开机

正在读取……

这里是其它用户补充的资源(我也要补充):

暂无补充资源
正在加载,请稍等...

点击查看所有11网友评论

 

(?) [公告]留口水、评论相关规则 | [活动]每日签到 轻松领取电驴经验

    小贴士:
  1. 类似“顶”、“沙发”之类没有营养的文字,对勤劳贡献的楼主来说是令人沮丧的反馈信息。
  2. 提问之前请再仔细看一遍楼主的说明,或许是您遗漏了。
  3. 勿催片。请相信驴友们对分享是富有激情的,如果确有更新版本,您一定能搜索到。
  4. 请勿到处挖坑绊人、招贴广告。既占空间让人厌烦,又没人会搭理,于人于己都无利。
  5. 如果您发现自己的评论不见了,请参考以上4条。