v

您的位置:VeryCD音乐古典音乐

音乐资源事务区


Kojian, Utah Symphony -《柏辽兹-幻想交响曲》(Berlioz.-.Symphonie.Fantastique)RR-11CD[APE]

  • 状态: 精华资源
  • 摘要:
    发行时间1989年
  • 时间: 2006/01/09 23:31:58 发布 | 2006/01/09 23:31:58 更新
  • 分类: 音乐  古典音乐 

梦里他乡

精华资源: 28

全部资源: 29

相关: 分享到新浪微博   转播到腾讯微博   分享到开心网   分享到人人   分享到QQ空间   订阅本资源RSS更新   美味书签  subtitle
该内容尚未提供权利证明,无法提供下载。
专辑英文名Berlioz.-.Symphonie.Fantastique
专辑中文名柏辽兹-幻想交响曲
资源格式APE
版本RR-11CD
发行时间1989年
地区美国
语言英语
简介

IPB Image


专辑介绍:

  【作品介绍】

  柏辽兹的《幻想交响曲》以充满想象力的管弦语法,为音乐的浪漫主义开启了决定性的大门。在当时,浪漫主义正从文坛、画坛渐次席卷到乐坛,柏辽兹正好恭逢其会。只不过,法国人讲究优雅细致,不像德国追求的是严肃与厚重,因此在交响曲这样讲究形式结构的曲风上,法国人一向少有杰出的发挥。但柏辽兹这位鬼才却创作了《幻想交响曲》,把守交响曲进入浪漫主义的第一个关口,也打破一般人认为“法国人不擅创作交响曲”的观念。

  当时浪漫主义在法国正如鱼得水般的风行,在诗坛、画坛、乐坛都各有代表人物,诗坛是雨果、绘画则是德拉克洛瓦(Fugene Delacroix),音乐方面就是以柏辽兹为尊。浪漫主义的微言大义,主张艺术应有尊重创作者的绝对自由,而在音乐方面表现出来的,则是对于炫目展技的高度兴趣,例如李斯特的钢琴、帕格尼尼的小提琴演出,而管弦乐方面柏辽兹无疑是“管弦超技”的先行者,他所写的交响曲与过去此类曲目有极大出入,无论在乐曲规模、乐念发展、乐章数,柏辽兹的手法像是脱缰的野马般,完全不受前人的束缚,自由自在地挥洒起来。他留给世人《幻想交响曲》、《意大利的哈洛德》、《罗密欧与茱丽叶》、《送葬与凯旋大交响曲》等“交响曲”作品,其中最知名的《幻想交响曲》完成于1830年,当时舒曼尚未开始写交响曲,而布拉姆斯都还没出生呢!

  【创作背景】

  众所皆知柏辽兹写作《幻想交响曲》是因为对女伶史密逊(Harriet Smithson)的一片痴心,在详说这个爱情故事之前,我想先提《幻想交响曲》的后续发展,给有兴趣的人作为追踪参考。在《幻想交响曲》之后,柏辽兹还写了该故事的传记续篇与音乐续篇,其中传记续篇《回到生活》叙述艺术家雷利奥(Lelio,作品14b)通过音乐的治疗力量,从狂乱中回到现实生活。而音乐续篇独白剧《雷利奥》就以艺术家雷利奥为名的,是部结合歌手与演员口白的管弦创新之作。

  如果单就柏辽兹为史密逊写《幻想交响曲》来看,多数人会以为柏辽兹相当痴心,但是就他一生的情史而言,柏辽兹的痴心只是一时的。当他十二岁时,爱情与音乐同时向他招手,他“高射炮”地单恋大他六岁的艾思蝶杜波(Estelle Duboeuf),而这段纯纯的情愫我们也可以在《幻想交响曲》第一乐章慢板序奏中听到。而1817年他与剧院的第二小提琴手M. Imbert学习声乐与长笛,算是正式的开始音乐启蒙教育。

  至于柏辽兹狂恋的女伶史密逊,是位出生于爱尔兰的英国人,其父为剧院经理,本身又有良好的戏剧背景。原本史密逊打算到伦敦发展舞台事业,但是她浓厚的爱尔兰口音,却成为她在英国发展的最大障碍。1827年(柏辽兹23岁),史密逊正巧有机会到法国的演出(因为语言隔阂,史密逊刚好可以掩饰她咬字的缺点)《哈姆雷特》里头的奥菲里亚,当晚观众席里法国艺文界知名人士都到齐了,雨果、仲马、巴尔札克、柏辽兹等人都是座上宾。剧毕,柏辽兹对史密逊的表现大为感动,他在回想录里记载:我想起了莎士比亚与充满灵感的女伶,所有巴黎的人都为狂热的奥菲里亚疯狂,她光辉灿烂的荣耀与我的穷苦潦倒相比是那样巨大,我非振作不可,我下定决心要把自己这个对她而言陌生的名字,经过努力奋斗变得响亮光彩!

  当时正在乐坛起步、默默无闻的柏辽兹,便展开追求计划的第一步,举行个人作品演奏会,不过很可惜他的第一步效果并不大,因为这位史密逊小姐对音乐的兴致并不高。但是柏辽兹并不死心,着手为她创作《幻想交响曲》,怎知造化弄人,当1830年(柏辽兹27岁)《幻想交响曲》首演时,史密逊竟然离开法国回到英国,根本没机会听到这首为她量身订做的曲子。有趣的是,同年柏辽兹赢得罗马作曲大奖,意气风发的他放下对史密逊的苦涩单恋,接受了另一位音乐少女卡蜜儿莫克(Camille Mork)的恋情。在年底,两人订下等柏辽兹自罗马回来便结婚的约定。没想到,柏辽兹远在罗马却收到卡蜜儿那位势利母亲的来信,说明她决定让女儿与知名制琴师Ignar Pleyel的长子结婚。接到此消息的柏辽兹宛如晴天霹雳般,竟然头脑不清楚地跑到女装店买一套女装伪装自己,同时买了一把手枪以及自杀用的毒药,打算连夜赶回巴黎杀死卡蜜儿母女以及她的未婚夫一共三人。所幸途中柏辽兹头脑逐渐清醒,告诉自己“那种女人有什么希罕!”,才终究没有酿成大祸。这也就是知名的“柏辽兹疯狂杀人魔”的故事。

  柏辽兹与史密逊的缘份毕竟未尽,1832年《幻想交响曲》再度演出,史密逊终于有机会一闻,当晚曲目还特别安排有柏辽兹的另外两首作品《罗密欧与茱丽叶》、《雷里奥》。《雷里奥》中有段朗诵歌词:喔!我愿见一见她的丽姿,看看茱丽叶的身影,奥菲里亚的身影。为了这种愿望,我的心田高鸣着,我只愿意乾饮由爱之喜与悲交融之杯!若是能够在仲秋之夜,于野生的石楠树丛上,被抱在她的胸膛中,一边受北风摇曳,然后进入最后的安眠,该有多好!当晚的音乐会还由柏辽兹亲自担任定音鼓的敲击工作,由此可看出史密逊在他心目中的地位。

  不过时隔五年,当年红遍法国戏剧界的史密逊,此时已经过气而且债台高筑,而当年的无名小卒柏辽兹,如今则是乐坛明日之星,两人当年的情况正好互换。因此在大家都不看好的情况下,柏辽兹于1833年10月与史密逊结婚,得尝多年宿愿娶得娇娘归。然而“再伟大的爱情,都要通过现实生活的考验”,七年之后两人结束婚姻,并育有一子路易。离婚之后的柏辽兹又与歌剧演唱家玛丽雷绮奥结婚,但两人依然没有白头偕老。柏辽兹的爱情虽然不断靠岸,却也不断地重新漂泊,他单恋史密逊时却激发了《幻想交响曲》的完成,时值今日已成为世人对于他当年坚固柔情的见证。

  不过,光靠爱情的激发就想要成就音乐史上伟大的交响曲之一《幻想交响曲》,当然是不足的。柏辽兹是因为看到史密逊饰演莎士比亚剧中角色才坠入情网,因此莎士比亚可以当成红娘。当时莎士比亚的文学是透过伏尔泰引介来才来到法国,而柏辽兹本身是严重的莎士比亚狂,他许多创作都根据莎翁着作,像歌剧《贝亚翠斯与班奈迪克》,交响曲《罗密欧与茱丽叶》,不少钢琴歌曲与管弦歌曲《奥菲利亚之死》、《李尔王》、《哈姆雷特送葬进行曲》等都是。此外,歌德作品对青年时期的柏辽兹影响也相当深。您不用过度佩服柏辽兹的才华,因为时代造就一切,在浪漫时期的音乐家往往都具有音乐与文学的双重才华。

  【写作技法】

  《幻想交响曲》问世只比贝多芬的《第九交响曲》晚了六年,舒曼盛赞这首作品有着全新的交响曲形式,而柏辽兹又能更赋予这个形式充满能量的内容。他说:“唯有天才,才能自由的创作。”的确,如果我们回头看看柏辽兹习乐的经过,再听听《幻想交响曲》表现的管弦效果,令谁都不得不佩服他是天才。

  柏辽兹的两位音乐老师M. Dorand(吉他老师)、J-F Lesueur(巴黎音乐院作曲教授)都是学究型人物,从来没有给过柏辽兹管弦乐法上的帮助。反倒是他自己努力吸收海顿、莫扎特交响曲的精髓,但他却从来没有喜欢过他们的交响曲。这种看似矛盾的作法,却造就了日后的《幻想交响曲》。一身散发着浪漫性格的柏辽兹,不仅矛盾还经常不拘形式打破法统,以几近病态的姿态行走乐坛。他与众不同的交响曲,充满戏剧性张力的器乐合奏,以及文学性十足的标题音乐等创作,让他成为浪漫主义的先锋导火线,管弦乐形式的独创者。他不仅是交响曲上第一位配器法超越贝多芬者,大胆且独立于传统之外的配器,将配器这个调色板扩大到无以复加的地步,连李斯特、华格纳等后生晚辈都叹为观止。他着作的《论配器法》更让人人尊称他为近代管弦乐之父。但是,您知道吗?柏辽兹只会演奏长笛与吉他两项乐器而已!

  除了形式、配器方面的突破,在创作手法上《幻想交响曲》将主导乐念运用得淋漓尽致,成为华格纳乐剧主导乐念的先行者更让听者能清晰掌握音乐整体概念。《幻想交响曲》一共有“梦、热情”、“舞会”、“田野风光”、“断头台进行曲”、“女巫的安息日晚会之梦”五个乐章,整首交响曲就像一出无言的戏剧,当时它原本有个标题艺术生涯中的插曲,而幻想交响曲只是个副题,但后来大众的使用习惯都以“幻想”来称呼这首作品。
  
  【作品赏析】
  
  第一乐章“梦、热情”,形容年轻艺术家见到心上人的喜悦,心上人可以说是结合魅力与理想于一身,几乎只有在梦中才能寻觅到。此点,完全符合柏辽兹个人的爱情观,他在评断文学、音乐相当理性,但是面对女人时却把她们当成理想无瑕的完美形象。融合了初恋的情愫与对史密逊的渴望,柏辽兹以加上弱音器的小提琴娓娓道出心声。在和声与配器的新颖度上,早已经超越过去任何一首交响曲的成就,光把这个乐章当成一个完整的交响曲来看,都不会太寒酸。柏辽兹以非常长大的缓慢序奏铺陈出此乐章的梦幻感,虽然之后接的是奏鸣曲式,但是交响曲一开始便用如此长大的序奏也是创举。在小提琴与铜管缓慢逐一对话后,音乐才进入明亮快速的主部。长笛与小提琴演奏出的优雅主题便是代表心上人的固定乐念,再往后的每个乐章它都会以不同姿态出现,贯穿全曲成为灵魂中心。另外,虽然为奏鸣曲式,但与古典时期的奏鸣曲式却大不相同,音乐的开展完全视需求而论,不因形式而有所束缚,因此呈式部没有第二主题,再现部也没有太多发展。反倒是结尾跟序奏一样相当长大,形成德国人眼中形式不均衡的第一乐章。结尾梦醒时不见心上人踪影,思念的渴望与苦楚充满了宗教气氛。

  第二乐章“舞会”,年轻艺术家在热闹的舞会场景中,发现爱人踪影,在音乐的喧闹声中,长笛与双簧管将固定乐念变形演奏出来。整段演奏长度大约只有第一乐章的三分之一,本乐章在配器上讲究透明感,用了两架竖琴增加这种清澈的感觉,而音色偏浊的低音管则未用,双簧管也只用了一支。交响曲的乐章中加入圆舞曲,在当时是首举,因为连闻名世界史特劳斯家族的圆舞曲都未问世呢!所以这个现在听起来轻松无比的乐章,在那个时代可是超越禁忌的大突破。

  第三乐章“田野风光”,夏日傍晚的乡间,两位牧羊人以民歌互通声息(英国管与双簧管的唱和),心上人的倩影再度出现,但艺术家却因而担心她对自己不忠。随之太阳下山,雷声隆隆,只留下一片孤寂。此段很明显受到贝多芬《田园交响曲》影响,在当时因为战争的关系,法国人普遍对德国人没有好感,因此贝多芬的交响曲在法国并没有太受到重视。但是柏辽兹凭其对艺术过人的洞察力,对贝多芬的交响曲多所欣赏,并将它推荐给自己的老师J-F Lesueur。心上人的固定乐念出现之际,情绪呈现不安定情况,后来虽然趋向平静,但也同样趋向死寂。从第一乐章的梦幻期待与渴望,到第二乐章的欢愉轻快,到了这里艺术家的苦恋似乎已经走到死巷尽头。从自然的旷野描写到内心的绝望,柏辽兹真是充满了想象力。

  第四乐章“断头台进行曲”,艺术家梦见自己杀死心上人,而且被判死刑,必须步向断头台。固定乐念由竖笛吹出,但是代表死神的整体管弦齐奏,没多久便粗暴地将她驱走。音乐整体气氛在定音鼓敲击下,有着沉重的进行风,连法国号的吹奏都仿佛失去了光泽(加音塞),令人不寒而栗。弦乐群在此都以低音部为主轴,更增添音乐厚重、迟滞的感觉。铜管群粗暴肆虐的吹奏,增加音乐的紧张感,同时将场面气势大大地开拓出来。越接近死刑台音乐的气氛越紧致凝重,心上人固定乐念最后在断头刀落下的同时消失无踪。

  第五乐章“女巫的安息日晚会之梦”艺术家醒来发觉自己在坟墓边,看到许多妖魔鬼怪,音乐充满阴森之感。结果日前渴望的心上人竟然也在此出现,更令人不可思议的是,她已经失去高贵形象,成为狰狞古怪的女巫,跟着群魔纵歌狂舞。此时,柏辽兹正沉溺在与女钢琴家卡蜜儿莫克的爱情中,因此他将对史密逊多年的苦恋转爱为恨,在音乐中报以一箭之仇让她从贵妇成为女巫,当钢琴模仿钟声的效果出现后,音乐奏着象征是世界绝灭的末日经。

  (以上文字来源网络)
============================================================
CUE文件

代码
PERFORMER "Kojian, Utah Symphony"
TITLE "Berlioz: Symphonie Fantastique"
FILE "Berlioz.-.[Symphonie.Fantastique].专辑.(ape).ape" WAVE
  TRACK 01 AUDIO
    TITLE "Reveries-Passions"
    PERFORMER "Kojian, Utah Symphony"
    INDEX 01 00:00:00
  TRACK 02 AUDIO
    TITLE "A Ball"
    PERFORMER "Kojian, Utah Symphony"
    INDEX 01 12:36:53
  TRACK 03 AUDIO
    TITLE "Scene in the Country"
    PERFORMER "Kojian, Utah Symphony"
    INDEX 00 18:53:20
    INDEX 01 18:57:15
  TRACK 04 AUDIO
    TITLE "March to the Scaffold"
    PERFORMER "Kojian, Utah Symphony"
    INDEX 01 34:37:35
  TRACK 05 AUDIO
    TITLE "Dream of a Witches Sabbath"
    PERFORMER "Kojian, Utah Symphony"
    INDEX 01 39:15:70
  TRACK 06 AUDIO
    TITLE "Dream of a Witches Sabbath"
    PERFORMER "Kojian, Utah Symphony"
    INDEX 00 48:18:35
    INDEX 01 48:48:63



专辑曲目

1.Reveries-Passions
2.A Ball
3.Scene in the Country
4.March to the Scaffold
5.Dream of a Witches Sabbath
6.Dream of a Witches Sabbath

正在读取……

这里是其它用户补充的资源(我也要补充):

heyuanyuan 2013/01/26 13:30:44 补充
...

该内容尚未提供权利证明,无法提供下载。
正在加载,请稍等...

点击查看所有33网友评论

 

(?) [公告]留口水、评论相关规则 | [活动]每日签到 轻松领取电驴经验

    小贴士:
  1. 类似“顶”、“沙发”之类没有营养的文字,对勤劳贡献的楼主来说是令人沮丧的反馈信息。
  2. 提问之前请再仔细看一遍楼主的说明,或许是您遗漏了。
  3. 勿催片。请相信驴友们对分享是富有激情的,如果确有更新版本,您一定能搜索到。
  4. 请勿到处挖坑绊人、招贴广告。既占空间让人厌烦,又没人会搭理,于人于己都无利。
  5. 如果您发现自己的评论不见了,请参考以上4条。