v

您的位置:VeryCD音乐华语音乐

音乐资源事务区


齐豫 -《唱经给你听之二.安心.发现了勇气》EMI原版[APE]

  • 状态: 精华资源
  • 摘要:
    发行时间2004年02月17日
  • 时间: 2006/08/30 18:01:31 发布 | 2006/08/30 18:01:31 更新
  • 分类: 音乐  华语音乐 

draic

精华资源: 5

全部资源: 5

相关: 分享到新浪微博   转播到腾讯微博   分享到开心网   分享到人人   分享到QQ空间   订阅本资源RSS更新   美味书签  subtitle
该内容尚未提供权利证明,无法提供下载。
专辑中文名唱经给你听之二.安心.发现了勇气
歌手齐豫
资源格式APE
版本EMI原版
发行时间2004年02月17日
简介

IPB Image


专辑介绍:

此文件意外丢失,重新压制ape后hash变了,如果大家碰到第一个文件没源的情况请下载最后一个文件!带来不便还请谅解

这么好听竟然是佛经!

◎ 3首齐豫天籁佛经新唱 45分钟顺心芬多精 现代人忙中取静必需品!
◎ 听佛经不必信教,齐豫歌声挂保证,喜悦好听人人都想要!老中青三代卖 唱片架上“茶里王”!
◎ 齐豫自有老顾客,佛经新概念专打年轻人,老少咸宜市场大。
◎ 化妆品级唯美广告,拍出现代人好好生活的渴望,社会气氛大共鸣。
◎ 清新包装炮火瞄准“茶里王族群”,上班族、开车族当然全部买正版!

平心烦 解压力 消灾祈福长智慧
懒人当道,听了顺心谁不要?

齐豫用心唱经给你听

  去年底,齐豫站上台北国际会议中心,举办她在台湾的个人首场售票演唱会,却在同时对流行乐坛告别,表示那也是她在台湾最后的一场流行音乐会,果然2004年一开春,齐豫就推出佛经专辑“因此更美丽”,准备从今开始“唱经给你听”,而这一系列的佛经音乐,好友黄韵玲、陈扬都答应来为她助阵,替佛经换上音乐新衣。

  齐豫唱佛经,有不少歌迷已经先听为快,在刚结束的台北演唱会上,她就特别演唱了新佛经音乐“大吉祥天女咒”,当时就引起许多歌迷的询问。大学念人类学的齐豫,真正接触佛经是这两年,除了自己受益良多之外,也发现佛经音乐其实很适合一般人聆听,她认为如果流行音乐安抚人们的心情,那佛经音乐便是安抚人们的性灵,而老天爷给了她这样一副美声做礼物,她现在就要把这个礼物发挥在佛经专辑上,跟更多人分享。

  尽管在音乐的掌握上已经炉火纯青,不过制作佛经音乐,齐豫却是头一遭,因此从选曲、编曲、发音,齐豫都很讲究,她还常抱着母带去请示师父,只为做出好听又不失佛经本意的音乐,果然最后成品连身为基督徒的EMI唱片总经理姚谦都为之感动,认为这真是世间绝美的声音,而齐豫也特别感恩姚谦协助发行这张专辑,夸他有颗“没有藩篱的心”。

  齐豫也一口气为“齐豫唱经给你听”一系列佛教音乐规画到第3辑,除了第1辑“因此更美丽”,“发现了勇气”、“所以变快乐”也都在制作中,她解释首张专辑“因此更美丽 ”中收录的“忏悔文”、“大吉祥天女咒”以及“般若波罗蜜多心经”等3首全长45分钟的佛经音乐,“忏悔文”适合在晚上听,可以助人反省、除旧布新,是每天的必听曲,“大吉祥天女咒”则会让人有好磁场心想事成、有喜乐有获得,“般若波罗蜜多心经”则会让人长智慧、人缘变得更好,整张专辑听完就会喜乐年年。
(以上内容均来自互联网)


声明:这次发布的齐豫唱经系列由于原版CD为CCCD(复制保护),所以抓轨是使用的CloneCD,而非EAC,本人完整试听过,里面少数曲目有极细微的瑕疵,但除非你是极端完美主义者,这些瑕疵是不会影响听音的.
由于最近老是连不上DonkeyServer,BigBang,因此近期常驻VC.eserver.SZ.
1M adsl,上传速度有限,还望大家稍安毋躁,资源长期有效(资源发布日起半月内24*7在线,以后不定时在线)
顺便把CUE贴出来(方括号内),方便大家


[REM DISCID 2E0AD803
REM COMMENT "ExactAudioCopy v0.95b4"
PERFORMER "未知艺术家"
TITLE "未知标题"
FILE "齐豫.-.[唱经给你听之二.安心.发现了勇气].专辑.(ape).wav" WAVE
TRACK 01 AUDIO
TITLE "Track01"
PERFORMER "未知艺术家"
INDEX 01 00:00:00
TRACK 02 AUDIO
TITLE "Track02"
PERFORMER "未知艺术家"
INDEX 00 16:03:13
INDEX 01 16:03:25
TRACK 03 AUDIO
TITLE "Track03"
PERFORMER "未知艺术家"
INDEX 00 31:07:40
INDEX 01 31:07:50]



专辑曲目

1.大慈大悲观世音
2.大悲咒
3.六字大明咒

正在读取……

这里是其它用户补充的资源(我也要补充):

暂无补充资源
正在加载,请稍等...

点击查看所有35网友评论

 

(?) [公告]留口水、评论相关规则 | [活动]每日签到 轻松领取电驴经验

    小贴士:
  1. 类似“顶”、“沙发”之类没有营养的文字,对勤劳贡献的楼主来说是令人沮丧的反馈信息。
  2. 提问之前请再仔细看一遍楼主的说明,或许是您遗漏了。
  3. 勿催片。请相信驴友们对分享是富有激情的,如果确有更新版本,您一定能搜索到。
  4. 请勿到处挖坑绊人、招贴广告。既占空间让人厌烦,又没人会搭理,于人于己都无利。
  5. 如果您发现自己的评论不见了,请参考以上4条。