v

您的位置:VeryCD音乐华语音乐

音乐资源事务区


齐豫 -《唱经给你听之三.快乐行.所以变快乐》MEI原版[APE]

  • 状态: 精华资源
  • 摘要:
    发行时间2004年03月10日
    地区台湾
    语言普通话
  • 时间: 2006/08/30 18:00:52 发布 | 2006/08/30 18:00:52 更新
  • 分类: 音乐  华语音乐 

draic

精华资源: 5

全部资源: 5

相关: 分享到新浪微博   转播到腾讯微博   分享到开心网   分享到人人   分享到QQ空间   订阅本资源RSS更新   美味书签  subtitle
该内容尚未提供权利证明,无法提供下载。
专辑中文名唱经给你听之三.快乐行.所以变快乐
歌手齐豫
资源格式APE
版本MEI原版
发行时间2004年03月10日
地区台湾
语言普通话
简介

IPB Image


专辑介绍:

5首佛经短版+3首新唱禅偈完整收录 佛经三部曲Happy Ending
  丰富超值 三张之最 最新收录禅偈古诗三首:比流行歌更好听!
  望江南 归依三宝赞:王安石禅意+爱尔兰浪漫 陪你天天快乐行
  梦:心平气和随梦境 职场如意Peace推荐曲!
  莲花处处开:一花一净土 一土一如来 喜悦随手可得:)

声明:这次发布的齐豫唱经系列由于原版CD为CCCD(复制保护),所以抓轨是使用的CloneCD,而非EAC,本人完整试听过,里面少数曲目有极细微的瑕疵,但除非你是极端完美主义者,这些瑕疵是不会影响听音的.
由于最近老是连不上DonkeyServer,BigBang,因此近期常驻VC.eserver.SZ.
1M adsl,上传速度有限,还望大家稍安毋躁,资源长期有效(资源发布日起半月内24*7在线,以后不定时在线)
顺便把CUE贴出来(方括号内),方便大家


[REM DISCID 6708B008
REM COMMENT "ExactAudioCopy v0.95b4"
PERFORMER "未知艺术家"
TITLE "未知标题"
FILE "齐豫.-.[唱经给你听之三.快乐行.所以变快乐].专辑.(ape).wav" WAVE
TRACK 01 AUDIO
TITLE "Track01"
PERFORMER "未知艺术家"
INDEX 01 00:00:00
TRACK 02 AUDIO
TITLE "Track02"
PERFORMER "未知艺术家"
INDEX 00 04:20:44
INDEX 01 04:20:55
TRACK 03 AUDIO
TITLE "Track03"
PERFORMER "未知艺术家"
INDEX 00 10:01:71
INDEX 01 10:02:02
TRACK 04 AUDIO
TITLE "Track04"
PERFORMER "未知艺术家"
INDEX 00 15:32:32
INDEX 01 15:32:45
TRACK 05 AUDIO
TITLE "Track05"
PERFORMER "未知艺术家"
INDEX 01 20:54:10
TRACK 06 AUDIO
TITLE "Track06"
PERFORMER "未知艺术家"
INDEX 00 24:52:05
INDEX 01 24:52:17
TRACK 07 AUDIO
TITLE "Track07"
PERFORMER "未知艺术家"
INDEX 01 28:34:32
TRACK 08 AUDIO
TITLE "Track08"
PERFORMER "未知艺术家"
INDEX 00 32:39:74
INDEX 01 32:40:10]



专辑曲目

1.般若波罗密多心经*
2.大悲咒*
3.六字大明咒*
4.忏悔文*
5.望江南 皈依三宝赞
6.梦
7.莲花处处开
8.大吉祥天女咒*
注:加*曲目为本系列专辑前两辑曲目之短版

正在读取……

这里是其它用户补充的资源(我也要补充):

暂无补充资源
正在加载,请稍等...

点击查看所有38网友评论

 

(?) [公告]留口水、评论相关规则 | [活动]每日签到 轻松领取电驴经验

    小贴士:
  1. 类似“顶”、“沙发”之类没有营养的文字,对勤劳贡献的楼主来说是令人沮丧的反馈信息。
  2. 提问之前请再仔细看一遍楼主的说明,或许是您遗漏了。
  3. 勿催片。请相信驴友们对分享是富有激情的,如果确有更新版本,您一定能搜索到。
  4. 请勿到处挖坑绊人、招贴广告。既占空间让人厌烦,又没人会搭理,于人于己都无利。
  5. 如果您发现自己的评论不见了,请参考以上4条。