v

您的位置:VeryCD音乐其它音乐

音乐资源事务区


Weekend -《音响绝唱》(SOUND SPECTACULAR)[APE]

  • 状态: 精华资源
  • 摘要:
  • 时间: 2005/12/18 12:56:59 发布 | 2005/12/18 12:56:59 更新
  • 分类: 音乐  其它音乐 

梦里他乡

精华资源: 28

全部资源: 29

相关: 分享到新浪微博   转播到腾讯微博   分享到开心网   分享到人人   分享到QQ空间   订阅本资源RSS更新   美味书签  subtitle
该内容尚未提供权利证明,无法提供下载。
专辑中文名音响绝唱
专辑英文名SOUND SPECTACULAR
别名壮丽的声音,大头仔
艺术家Weekend
资源格式APE
地区美国
语言英语
简介

IPB Image


专辑介绍:

  详细介绍请参考http://lib.VeryCD.com/2005/04/27/0000048447.html
  第一段“出埃及记”,弦乐组如波浪重迭 般扑面而来,管弦组穿透力惊人,合唱组气势磅礴、生动悲壮,所有这一切,交织出一幅庞大慑人的场景。真的一样的现场演奏与演唱!
  第二段两支军队行进交火的场面尤为"壮观" 士官的呐喊 后方军乐队的演奏 骑兵来回的急弛(嘴里还叫着English coming!)和枪炮的轰鸣绝对是纤毫毕现。
  其余的不一一赘述,下载后慢慢体会吧。别说电脑音箱太差,也别怪自己的音响不够好。
  附上CUE文件

代码
PERFORMER "Weekend Classics"
TITLE "Weekend Sound Spectacular"
FILE "Weekend.-.[SOUND.SPECTACULAR].专辑.(ape).ape" WAVE
  TRACK 01 AUDIO
    TITLE "Exodus - Ari's Theme"
    PERFORMER "Weekend Classics"
    INDEX 00 00:00:00
    INDEX 01 00:00:32
  TRACK 02 AUDIO
    TITLE "March of the Grenadiers/Yankee Doodle"
    PERFORMER "Weekend Classics"
    INDEX 00 03:23:27
    INDEX 01 03:28:40
  TRACK 03 AUDIO
    TITLE "In a Monastery Garden"
    PERFORMER "Weekend Classics"
    INDEX 00 08:58:45
    INDEX 01 09:03:35
  TRACK 04 AUDIO
    TITLE "Meadowland"
    PERFORMER "Weekend Classics"
    INDEX 00 14:31:42
    INDEX 01 14:36:42
  TRACK 05 AUDIO
    TITLE "Circus Spectacular"
    PERFORMER "Weekend Classics"
    INDEX 00 21:50:62
    INDEX 01 21:55:40
  TRACK 06 AUDIO
    TITLE "La Normandie - Cancan"
    PERFORMER "Weekend Classics"
    INDEX 00 35:38:52
    INDEX 01 35:44:52
  TRACK 07 AUDIO
    TITLE "Shema/Have Nagila"
    PERFORMER "Weekend Classics"
    INDEX 00 38:55:27
    INDEX 01 39:00:55
  TRACK 08 AUDIO
    TITLE "Crimean War"
    PERFORMER "Weekend Classics"
    INDEX 00 43:40:32
    INDEX 01 43:45:35
  TRACK 09 AUDIO
    TITLE "Doctor Zhivago"
    PERFORMER "Weekend Classics"
    INDEX 00 49:18:47
    INDEX 01 49:22:72
  TRACK 10 AUDIO
    TITLE "1812 Overture"
    PERFORMER "Weekend Classics"
    INDEX 00 55:09:42
    INDEX 01 55:14:52



专辑曲目

1. Exodus - Ari's Theme 出埃及记
2. March of the Grenadiers/Yankee Doodle 掷弹兵进行曲
3. In a Monastery Garden 在修道院的花园里
4. Meadowland 草原
5. Circus Spectacular 壮观的马戏团演出
6. La Normandie - Cancan 诺曼底-康康舞曲
7. Shema/Have Nagila 施玛
8. Crimean War 克里米娅战争
9. Doctor Zhivago 日瓦戈医生
10. 1812 Overture 1812序曲

正在读取……

这里是其它用户补充的资源(我也要补充):

暂无补充资源
正在加载,请稍等...

点击查看所有35网友评论

 

(?) [公告]留口水、评论相关规则 | [活动]每日签到 轻松领取电驴经验

    小贴士:
  1. 类似“顶”、“沙发”之类没有营养的文字,对勤劳贡献的楼主来说是令人沮丧的反馈信息。
  2. 提问之前请再仔细看一遍楼主的说明,或许是您遗漏了。
  3. 勿催片。请相信驴友们对分享是富有激情的,如果确有更新版本,您一定能搜索到。
  4. 请勿到处挖坑绊人、招贴广告。既占空间让人厌烦,又没人会搭理,于人于己都无利。
  5. 如果您发现自己的评论不见了,请参考以上4条。