v

您的位置:VeryCD音乐古典音乐

音乐资源事务区


阿尔图罗·托斯卡尼尼 Arturo Toscanini -《贝多芬庄严弥撒》(Beethoven - Missa Solemnis)“现代指挥艺术的鼻祖”托斯卡尼尼最佳录音UV22版本[APE]

  • 状态: 精华资源
  • 摘要:
    发行时间1998年
  • 时间: 2005/12/17 09:41:06 发布 | 2007/10/05 20:12:41 更新
  • 分类: 音乐  古典音乐 

Xuhcan

精华资源: 4

全部资源: 4

相关: 分享到新浪微博   转播到腾讯微博   分享到开心网   分享到人人   分享到QQ空间   订阅本资源RSS更新   美味书签  subtitle
该内容尚未提供权利证明,无法提供下载。
专辑英文名Beethoven - Missa Solemnis
专辑中文名贝多芬庄严弥撒
资源格式APE
版本“现代指挥艺术的鼻祖”托斯卡尼尼最佳录音UV22版本
发行时间1998年
地区美国
简介

IPB Image


专辑介绍:


·路德维希·凡·贝多芬(Ludwig Van Beethoven,1770—1827),德国最伟大的音乐家之一。他信仰共和,崇尚英雄,创作了有大量充满时代气息的优秀作品。他集古典音乐的大成,同时开辟了浪漫时期音乐的道路,对世界音乐的发展有着举足轻重的作用,被尊称为“乐圣”。

·阿尔图罗·托斯卡尼尼(Arturo Toscanini,1867-1957),意大利指挥家,大提琴演奏家。九岁入帕尔马音乐院学大提琴和作曲,1886年成为里约热内卢歌剧院的大提琴演奏者,代理指挥演出了《阿伊达》博得好评,从此就任正式指挥。同年返回意大利,在特里诺和米兰以指挥歌剧新作和瓦格纳的歌剧而着名。1903-1906年任布宜诺斯艾利斯歌剧院指挥,1908-1915年任纽约大都会歌剧院主任指挥。1915年回国,重任斯卡拉歌剧院音乐指导。1928-1936年任纽约交响乐团常任指挥。1937年任纽约交响乐团常任指挥。1937年美国音乐界为他挑选优秀演奏员组成NBC(国家广播公司)交响乐团,由他任指挥达十七年,直到1954年退休。

·托斯卡尼尼的指挥风格主要是严谨、精湛、精确、质朴和热情。他的指挥棒技巧说来并不十分高超,但他却以一种特殊的魅力和手势引导着乐队,这些手势既简洁又洗练,非常富有表现力,在音乐内容需要时,它既能表达变化细微的表情,又能体现出激烈热情的戏剧性效果。由于他对作曲家的作品有着精确的理解,因此他的演释就总使人感到恰到好处,这也正像朱塞佩·塔罗齐在托斯卡尼尼的传记中所说得那样“托斯卡尼尼的伟大就在于他能极其忠实地把原作的意境传达给听众,既不添枝加叶,也不偷工减料”。

背景知识:


·托斯卡尼尼的诠释,被公认为“最正宗的贝多芬”、“古今无人能超越的典范”。
·本专辑上演的史上最伟大的弥撒曲-《庄严弥撒》是托翁1950年与NBC交响乐团在卡内基音乐厅录制的,并动用了享誉专业录音界的UV22数字编码技术,对母带进行重制,将分辨率提升至20bit,使音质更佳,与以往版本截然不同. 音响更接近于大师指挥棒下所应有的不可思议的明亮饱满,截然不同于早先版本的普遍贫弱.分明的层次,宏伟的结构,热情而不失理性,展现的绝对是卓绝的大师风范;劳伯萧合唱团及众多歌唱家则以最虔诚纯净的心灵,高歌这些绝美的诗篇!


托斯卡尼尼与庄严弥撒:


托斯卡尼尼在66岁高龄时第一次指挥了《庄严弥撒》的演出,距他第一次公演将近48年.这位大师为何为何要等待这么久才指挥? 纵观托斯卡尼尼的音乐历程和弥撒本身的角色可以发现,这种遗漏是可以理解的.《庄严弥撒》是贝多芬最具挑战性的作品,长度空前,而且抒发了作者不同寻常的一种情怀.弥撒需要额外的独唱家,合唱队和管弦乐队,它的演出始终受到限制,到了现代,这种演出更是极为罕见.然而托斯卡尼尼大师经典曲目中《庄严弥撒》长达半个世纪的缺席不仅仅是因为它演奏需要的特殊场合,主要原因是大师27年的职业生涯都在音乐厅度过,人们常常忽视一点:托斯卡尼尼把他的黄金时光都给了歌剧.最能展现大师对于弥撒深刻理解的地方,在于他拒绝让整曲听起来情绪化或是过于虔诚,在大师指挥下,高呼荣光的"阿门"成就了根基的完结部;《降福经》乐部的小提琴独奏在加进了额外的颤音后被净化了;而管弦乐队整体的响亮度在允许加进铜管乐器后得到了平衡,这种具有鼓舞作用的音效加强了弥撒和声基础的效果和色彩。


CUE:

代码
PERFORMER "Arturo Toscanini"
TITLE "Beethoven-Missa Solemnis"
REM GENRE Classical
REM DATE 1953
REM DISCID 3D117C05
REM COMMENT "ExactAudioCopy v0.95b3"
FILE "Arturo.Toscanini.-.[Beethoven.-.Missa.Solemnis].专辑.(ape).ape" WAVE
  TRACK 01 AUDIO
    TITLE "Kyrie-Assai sostenuto"
    PERFORMER "Arturo Toscanini"
    INDEX 01 00:00:00
  TRACK 02 AUDIO
    TITLE "Gloria-Allegro vivace"
    PERFORMER "Arturo Toscanini"
    INDEX 00 09:05:00
    INDEX 01 09:09:02
  TRACK 03 AUDIO
    TITLE "Credo-Allrgro ma non troppo"
    PERFORMER "Arturo Toscanini"
    INDEX 00 25:11:12
    INDEX 01 25:15:45
  TRACK 04 AUDIO
    TITLE "Sanctus-Adagio"
    PERFORMER "Arturo Toscanini"
    INDEX 00 43:12:60
    INDEX 01 43:19:17
  TRACK 05 AUDIO
    TITLE "Agnus Dei-Adagio"
    PERFORMER "Arturo Toscanini"
    INDEX 00 59:50:55
    INDEX 01 59:56:52



专辑曲目

Missa Solemnis in D Major, Op. 123 74:42
D大调庄严弥撒,作品123
1 Kyrie – Assai sostenuto 9:06
垂怜经——极稳定、持续不变
2 Gloria – Allegro vivace 16:02
荣耀经——快速、活泼
3 Credo – Allegro ma non troppo 17:58
信经——从容的快板
4 Sanctus – Adagio 16:36
圣哉经——柔板
5 Agnus Dei – Adagio 14:47
羔羊经——柔板

正在读取……

这里是其它用户补充的资源(我也要补充):

暂无补充资源
正在加载,请稍等...

点击查看所有21网友评论

 

(?) [公告]留口水、评论相关规则 | [活动]每日签到 轻松领取电驴经验

    小贴士:
  1. 类似“顶”、“沙发”之类没有营养的文字,对勤劳贡献的楼主来说是令人沮丧的反馈信息。
  2. 提问之前请再仔细看一遍楼主的说明,或许是您遗漏了。
  3. 勿催片。请相信驴友们对分享是富有激情的,如果确有更新版本,您一定能搜索到。
  4. 请勿到处挖坑绊人、招贴广告。既占空间让人厌烦,又没人会搭理,于人于己都无利。
  5. 如果您发现自己的评论不见了,请参考以上4条。