v

您的位置:VeryCD音乐古典音乐

音乐资源事务区


V.A -《不朽的浪漫曲集》(Eternity.-.A.Romantic.Collection)[APE]

  • 状态: 精华资源
  • 摘要:
    发行时间1996年
  • 时间: 2005/12/15 07:49:19 发布 | 2005/12/15 07:49:19 更新
  • 分类: 音乐  古典音乐 

^O^清风

精华资源: 109

全部资源: 117

相关: 分享到新浪微博   转播到腾讯微博   分享到开心网   分享到人人   分享到QQ空间   订阅本资源RSS更新   美味书签  subtitle
该内容尚未提供权利证明,无法提供下载。
专辑英文名Eternity.-.A.Romantic.Collection
专辑中文名不朽的浪漫曲集
艺术家V.A
资源格式APE
发行时间1996年
地区美国
语言英语
简介

IPB Image


专辑介绍:

  《Eternity - A Romantic Collection》是一套情景音乐的精选集,这张浪漫精选是由REAL MUSIC旗下的众音乐家音乐作品组成的合辑。汇集了Real Music旗下的多名主力大将的作品,如《大峡谷》的Nicholas Gunn、《绿色花园》的Kevin Kern、竖琴大师Hilary Stagg等。专辑中曲目的共有特点就是曲风和缓、没有过多的起伏,我们经常可以在一些吧间、电台乃至电视节目的配乐中听到这样 的曲子,所以其中的很多音可能大家都有些耳熟能祥。

转自逸居园:
http://www.yijuy.com/bbs/dispbbs.asp?board...0&page=1
感谢mwm318朋友的发布和支持!

CUE文件:

ps:此APE文件已经加入CUESHEET,可在FOOBAR下不用CUE直接听!

代码
PERFORMER "Various Artists"
TITLE "Eternity: A Romantic Collection"
FILE "V.A.-.[不朽的浪漫曲集(Eternity.-.A.Romantic.Collection)].专辑.(ape).ape" WAVE
  TRACK 01 AUDIO
    TITLE "A Place in My Heart"
    PERFORMER "Various Artists"
    INDEX 01 00:00:00
  TRACK 02 AUDIO
    TITLE "Inner Sanctum"
    PERFORMER "Various Artists"
    INDEX 00 03:38:11
    INDEX 01 03:40:10
  TRACK 03 AUDIO
    TITLE "Embrace"
    PERFORMER "Various Artists"
    INDEX 00 08:41:68
    INDEX 01 08:43:67
  TRACK 04 AUDIO
    TITLE "Simple Thoughts"
    PERFORMER "Various Artists"
    INDEX 00 15:38:63
    INDEX 01 15:40:62
  TRACK 05 AUDIO
    TITLE "Sundial Dreams"
    PERFORMER "Various Artists"
    INDEX 00 20:30:13
    INDEX 01 20:32:12
  TRACK 06 AUDIO
    TITLE "A New Beginning"
    PERFORMER "Various Artists"
    INDEX 00 25:16:58
    INDEX 01 25:18:57
  TRACK 07 AUDIO
    TITLE "Once in a Life"
    PERFORMER "Various Artists"
    INDEX 00 32:15:46
    INDEX 01 32:17:45
  TRACK 08 AUDIO
    TITLE "Lavender Moon"
    PERFORMER "Various Artists"
    INDEX 00 36:35:13
    INDEX 01 36:37:12
  TRACK 09 AUDIO
    TITLE "Festive"
    PERFORMER "Various Artists"
    INDEX 00 42:27:13
    INDEX 01 42:29:12
  TRACK 10 AUDIO
    TITLE "The Blessing"
    PERFORMER "Various Artists"
    INDEX 00 46:33:63
    INDEX 01 46:35:62
  TRACK 11 AUDIO
    TITLE "Sultan's Wing"
    PERFORMER "Various Artists"
    INDEX 00 51:11:31
    INDEX 01 51:13:30
  TRACK 12 AUDIO
    TITLE "Dream Spiral"
    PERFORMER "Various Artists"
    INDEX 00 56:01:23
    INDEX 01 56:03:22
  TRACK 13 AUDIO
    TITLE "Quinta Essentia"
    PERFORMER "Various Artists"
    INDEX 00 61:09:53
    INDEX 01 61:11:52
  TRACK 14 AUDIO
    TITLE "Sailing Away"
    PERFORMER "Various Artists"
    INDEX 00 66:27:41
    INDEX 01 66:29:40
  TRACK 15 AUDIO
    TITLE "After the Rain "
    PERFORMER "Various Artists"
    INDEX 00 72:31:73
    INDEX 01 72:33:72



专辑曲目

1. A Place in My Heart
2. Inner Sanctum
3. Embrace
4. Simple Thoughts
5. Sundial Dreams
6. A New Beginning
7. Once in a Life
8. Lavender Moon
9. Festive
10. The Blessing
11. Sultan's Wing
12. Dream Spiral
13. Quinta Essentia
14. Sailing Away
15. After the Rain

正在读取……

这里是其它用户补充的资源(我也要补充):

暂无补充资源
正在加载,请稍等...

点击查看所有19网友评论

 

(?) [公告]留口水、评论相关规则 | [活动]每日签到 轻松领取电驴经验

    小贴士:
  1. 类似“顶”、“沙发”之类没有营养的文字,对勤劳贡献的楼主来说是令人沮丧的反馈信息。
  2. 提问之前请再仔细看一遍楼主的说明,或许是您遗漏了。
  3. 勿催片。请相信驴友们对分享是富有激情的,如果确有更新版本,您一定能搜索到。
  4. 请勿到处挖坑绊人、招贴广告。既占空间让人厌烦,又没人会搭理,于人于己都无利。
  5. 如果您发现自己的评论不见了,请参考以上4条。