v

您的位置:VeryCD音乐古典音乐

音乐资源事务区


Various -《试音碟》(British Music on Lyrita from Quad)[APE]

  • 状态: 精华资源
  • 摘要:
    发行时间1993年
  • 时间: 2005/12/14 17:26:41 发布 | 2005/12/14 17:26:41 更新
  • 分类: 音乐  古典音乐 

梦里他乡

精华资源: 28

全部资源: 29

相关: 分享到新浪微博   转播到腾讯微博   分享到开心网   分享到人人   分享到QQ空间   订阅本资源RSS更新   美味书签  subtitle
该内容尚未提供权利证明,无法提供下载。
专辑英文名British Music on Lyrita from Quad
专辑中文名试音碟
艺术家Various
资源格式APE
发行时间1993年
地区英国
语言英语
简介

IPB Image


专辑介绍:

  Lyrita公司向来出品的录音都得到很高的评价TAS榜更是常客。这张《British Music on Lyrita from QUAD》是Lyrita公司为英国发烧音响品牌QUAD(国都)出品的一张试音碟, 碟中收录的都是Lyrita出品的英国音乐选段,其中包括如Holst,Parry,Walton,Aronld,Bantock等一些音乐家作品,演奏乐队分别有鼎鼎大名的伦敦交响乐团、伦敦爱乐乐团、爱乐乐团等,而且不少作品是由名指挥家Boult指挥,水平必有保证。据QUAD老板Ross Walker 透露,由于Lyrita 录音靓声,QUAD自七十年代以来每当参加展览时必用Lyrita LP示范,而为了将就听众,示范时会尽量选播一些效果特别迷人抢耳的精简乐段,故此制作成试音碟!
  这张专辑于1993年面市。专辑共15首78分钟(选自14张Lyrata出的CD),是Lyrita的精选。整张都好听,特别是第10首充满苏格兰原野风味。
  经过在网上的苦苦搜索找得此APE,想找一张清晰的图片都已经很难,只能找到这张了,希望大家喜欢这张专辑。

CUE文件:

代码
PERFORMER "Various"
TITLE "British Music on Lyrita from Quad"
FILE "Various.-.[British.Music.on.Lyrita.from.Quad].专辑.(APE).ape" WAVE
  TRACK 01 AUDIO
    TITLE "Holst / A Winter Idyll"
    PERFORMER "Various"
    INDEX 01 00:00:00
    REM DATE 1993
    REM COMMENT  YEAR: 1993
    REM GENRE Classical
    REM DISCID dc12480f
  TRACK 02 AUDIO
    TITLE "Parry / An English Suite: Frolic (vii)"
    PERFORMER "Various"
    INDEX 01 07:10:00
    REM DATE 1993
    REM COMMENT  YEAR: 1993
    REM GENRE Classical
    REM DISCID dc12480f
  TRACK 03 AUDIO
    TITLE "Walton / Music For Children: Trumpet Tune (x)"
    PERFORMER "Various"
    INDEX 01 10:27:00
    REM DATE 1993
    REM COMMENT  YEAR: 1993
    REM GENRE Classical
    REM DISCID dc12480f
  TRACK 04 AUDIO
    TITLE "Stanford / Piano Concerto No.2 in C minor Op.126: Allegro Molto (iii)"
    PERFORMER "Various"
    INDEX 01 12:36:00
    REM DATE 1993
    REM COMMENT  YEAR: 1993
    REM GENRE Classical
    REM DISCID dc12480f
  TRACK 05 AUDIO
    TITLE "Bliss / Rout For Orchestra and Soprano"
    PERFORMER "Various"
    INDEX 01 22:58:00
    REM DATE 1993
    REM COMMENT  YEAR: 1993
    REM GENRE Classical
    REM DISCID dc12480f
  TRACK 06 AUDIO
    TITLE "Bennett / Piano Concerto No.5 in F minor: II - A Stroll Through The Meadows"
    PERFORMER "Various"
    INDEX 01 30:19:00
    REM DATE 1993
    REM COMMENT  YEAR: 1993
    REM GENRE Classical
    REM DISCID dc12480f
  TRACK 07 AUDIO
    TITLE "Rubbra / Symphony No.4 Op.53: excerpt from (iii) Allegro Maestoso"
    PERFORMER "Various"
    INDEX 01 39:48:00
    REM DATE 1993
    REM COMMENT  YEAR: 1993
    REM GENRE Classical
    REM DISCID dc12480f
  TRACK 08 AUDIO
    TITLE "Berkeley / Serenade For Strings Op.12: (i) Vivace"
    PERFORMER "Various"
    INDEX 01 45:00:00
    REM DATE 1993
    REM COMMENT  YEAR: 1993
    REM GENRE Classical
    REM DISCID dc12480f
  TRACK 09 AUDIO
    TITLE "Bax / Mediterranean"
    PERFORMER "Various"
    INDEX 01 47:04:00
    REM DATE 1993
    REM COMMENT  YEAR: 1993
    REM GENRE Classical
    REM DISCID dc12480f
  TRACK 10 AUDIO
    TITLE "Arnold / Scottish Dances Op.59: (iii) Allegretto"
    PERFORMER "Various"
    INDEX 01 50:21:00
    REM DATE 1993
    REM COMMENT  YEAR: 1993
    REM GENRE Classical
    REM DISCID dc12480f
  TRACK 11 AUDIO
    TITLE "Coates / Suite: The Three Men - The Man From The Sea"
    PERFORMER "Various"
    INDEX 01 54:36:00
    REM DATE 1993
    REM COMMENT  YEAR: 1993
    REM GENRE Classical
    REM DISCID dc12480f
  TRACK 12 AUDIO
    TITLE "Bantock / Russian Scenes - At the Fair"
    PERFORMER "Various"
    INDEX 01 60:07:00
    REM DATE 1993
    REM COMMENT  YEAR: 1993
    REM GENRE Classical
    REM DISCID dc12480f
  TRACK 13 AUDIO
    TITLE "Lutyens / En Voyage - Paris Soir"
    PERFORMER "Various"
    INDEX 01 63:11:00
    REM DATE 1993
    REM COMMENT  YEAR: 1993
    REM GENRE Classical
    REM DISCID dc12480f
  TRACK 14 AUDIO
    TITLE "Tate / London Fields Hampstead Heath - Rondo for Roundabouts"
    PERFORMER "Various"
    INDEX 01 67:52:00
    REM DATE 1993
    REM COMMENT  YEAR: 1993
    REM GENRE Classical
    REM DISCID dc12480f
  TRACK 15 AUDIO
    TITLE "Foulds / Dynamic Tryplich for Piano and Orchestra Op. 99 - Dynamic Rhythm"
    PERFORMER "Various"
    INDEX 01 71:17:00
    REM DATE 1993
    REM COMMENT  YEAR: 1993
    REM GENRE Classical
    REM DISCID dc12480f



专辑曲目

1. A Winter Idyll -- LPO, Atherton
2. An English Suite: Frolic (vii) -- Boult LSO
3. Music For Children: Trumpet Tune (x) -- LPO, Walton
4. Piano Concerto No.2 in C minor Op.126: Allegro Molto (iii) -- Malcolm Binns, piano: LSO, Braithwaite
5. Rout For Orchestra and Soprano -- Rae Woodland, sop: LSO, Bliss
6. Piano Concerto No.5 in F minor: II - A Stroll Through The Meadows -- Malcolm Binns, piano: Philharmonia, Braithwaite
7. Symphony No.4 Op.53: excerpt from (iii) Allegro Maestoso -- Philharmonia, Del Mar
8. Serenade For Strings Op.12: (i) Vivace -- LPO, Berkeley
9. Mediterranean -- London Philharmonic Orchestra, Sir Adrian Boult
10. Scottish Dances Op.59: (iii) Allegretto -- LPO, Arnold
11. Suite: The Three Men - The Man From The Sea -- LPO, Wordsworth
12. Russian Scenes: (i) At The Fair -- LPO, Wordsworth
13. En Voyage: (iv) Paris Soir (City Lights) -- RPO, Joly
14. London Fields: (iv) Hampstead Heath (Rondo for Roundabouts) -- LPO, Wordsworth
15. Dynamic Triptych for Piano and Orchestra Op.88: (iii) Dynamic Rhyth -- Howard Shelley, piano: RPO, Handley

正在读取……

这里是其它用户补充的资源(我也要补充):

暂无补充资源
正在加载,请稍等...

点击查看所有27网友评论

 

(?) [公告]留口水、评论相关规则 | [活动]每日签到 轻松领取电驴经验

    小贴士:
  1. 类似“顶”、“沙发”之类没有营养的文字,对勤劳贡献的楼主来说是令人沮丧的反馈信息。
  2. 提问之前请再仔细看一遍楼主的说明,或许是您遗漏了。
  3. 勿催片。请相信驴友们对分享是富有激情的,如果确有更新版本,您一定能搜索到。
  4. 请勿到处挖坑绊人、招贴广告。既占空间让人厌烦,又没人会搭理,于人于己都无利。
  5. 如果您发现自己的评论不见了,请参考以上4条。