v

您的位置:VeryCD音乐其它音乐

音乐资源事务区


迈克欧菲尔德(Mike Oldfield) -《光与影》(Light + Shade)[APE]

  • 状态: 精华资源
  • 摘要:
    发行时间2005年09月26日
  • 时间: 2005/12/14 09:19:32 发布 | 2005/12/14 09:19:32 更新
  • 分类: 音乐  其它音乐 

梦里他乡

精华资源: 28

全部资源: 29

相关: 分享到新浪微博   转播到腾讯微博   分享到开心网   分享到人人   分享到QQ空间   订阅本资源RSS更新   美味书签  subtitle
该内容尚未提供权利证明,无法提供下载。
专辑中文名光与影
专辑英文名Light + Shade
资源格式APE
发行时间2005年09月26日
地区英国
语言英语
简介

IPB Image


专辑介绍:
  
  “我不是一个‘正常’的音乐家,而是一个把想法用音符与节奏呈现的工程师。”擅长作曲以及多样乐器演奏的Mike Oldfield/迈克欧菲尔德这么形容自己。1953年出生于英国Reading的Mike Oldfield,14岁起和民谣歌手姐姐Sally Oldfield组团,开始职业音乐演出;16岁时加入the Whole World乐团演奏贝斯,后来更出任首席吉他手。不过才华洋溢的Mike Oldfield却一直被各大主流厂牌拒绝,一直到Richard Branson成立Virgin唱片公司,才敲响Mike Oldfield这座蕴含能量且音色悠扬的好钟。
  1973年,Mike Oldfield的首张个人专辑《Tubular Bells》问世,在这张充满特殊气氛、纯熟作曲技巧、融合摇滚与民谣曲风的演奏专辑中,他亲自演奏了将近三十种乐器,石破天惊的蝉联英国金榜冠军长达数个月,全球销量突破一千六百万张,并赢得葛莱梅奖最佳演奏曲作曲的肯定。《Tubular Bells》不仅被惊悚电影经典《大法师》选为配乐,更可说是New Age音乐的滥觞。三十多年来,Mike Oldfield用二十二张专辑实验了流行、摇滚、情境、电音、交响乐……等丰富多样的元素、率先探索了居乐特与非洲等世界音乐,也为虚拟实境的电玩游戏创作主题音乐、不断开启乐迷新的音乐视野!从电玩配乐重回纯音乐领域、同时也是Mike Oldfield加盟环球音乐的首张双概念专辑《Light + Shade》,融合了简单和繁复的音乐表现,透过两种截然不同的音乐类型与情绪,让乐迷一次体验《Light》中轻松驰放与《Shade》里神秘多感的音乐个性。为了这张专辑的录制,Mike Oldfield特地将家中的录音室设备全部汰旧换新,希望运用最新的录音科技让专辑中的每个音符都有最完美的呈现。“Angelique”歌如其名的传递如天使般的舒适感受;“Blackbird”里,Mike Oldfield悠闲弹奏着他的1928年份史坦威钢琴;“First Steps”、“OurFather”、“Sunset”、“Ringscape” 则脱胎换骨自先前的电玩配乐作品;为热情节奏“Nightshade”演奏贝斯和鼓的Christopher von Deylen (知名电音制作双人组Schiller团员之一)则是全辑唯一的特别嘉宾。
  另外,该专辑Mike Oldfield首次提供时下流行的U-MYX格式,让乐迷自己混音。这里提供四首:Angelique、Our Father、Quicksilver、Slipstream。全部打包下载(最后一个压缩包)。下面有播放时的截图。

在第十九楼有CUE文件下载

CUE文件:

代码
CD 1: [Light]

REM GENRE Rock
REM DATE 2005
REM DISCID 620C9109
REM COMMENT "ExactAudioCopy v0.95b3"
PERFORMER "Mike Oldfield"
TITLE "Light + Shade (CD 1)"
FILE "Mike.Oldfield.-.[Light.And.Shade.CD1].专辑.(ape).ape" WAVE
  TRACK 01 AUDIO
    TITLE "Angelique"
    PERFORMER "Mike Oldfield"
    INDEX 01 00:00:00
    REM DATE 2005
    REM COMMENT  YEAR: 2005
    REM GENRE New Age
    REM DISCID 4e09b508
  TRACK 02 AUDIO
    TITLE "Blackbird"
    PERFORMER "Mike Oldfield"
    INDEX 01 04:40:65
    REM DATE 2005
    REM COMMENT  YEAR: 2005
    REM GENRE New Age
    REM DISCID 4e09b508
  TRACK 03 AUDIO
    TITLE "The Gate"
    PERFORMER "Mike Oldfield"
    INDEX 01 09:19:66
    REM DATE 2005
    REM COMMENT  YEAR: 2005
    REM GENRE New Age
    REM DISCID 4e09b508
  TRACK 04 AUDIO
    TITLE "First Steps"
    PERFORMER "Mike Oldfield"
    INDEX 01 13:34:15
    REM DATE 2005
    REM COMMENT  YEAR: 2005
    REM GENRE New Age
    REM DISCID 4e09b508
  TRACK 05 AUDIO
    TITLE "Closer"
    PERFORMER "Mike Oldfield"
    INDEX 01 23:37:00
    REM DATE 2005
    REM COMMENT  YEAR: 2005
    REM GENRE New Age
    REM DISCID 4e09b508
  TRACK 06 AUDIO
    TITLE "Our Father"
    PERFORMER "Mike Oldfield"
    INDEX 01 26:28:61
    REM DATE 2005
    REM COMMENT  YEAR: 2005
    REM GENRE New Age
    REM DISCID 4e09b508
  TRACK 07 AUDIO
    TITLE "Rocky"
    PERFORMER "Mike Oldfield"
    INDEX 01 33:19:04
    REM DATE 2005
    REM COMMENT  YEAR: 2005
    REM GENRE New Age
    REM DISCID 4e09b508
  TRACK 08 AUDIO
    TITLE "Sunset"
    PERFORMER "Mike Oldfield"
    INDEX 01 36:38:15
    REM DATE 2005
    REM COMMENT  YEAR: 2005
    REM GENRE New Age
    REM DISCID 4e09b508

CD 2: [Shade]:

REM GENRE "New Age"
REM DATE 2005
REM DISCID 58098008
REM COMMENT "ExactAudioCopy v0.95b3"
PERFORMER "Mike Oldfield"
TITLE "Light And Shade  CD Shade"
FILE "Mike.Oldfield.-.[Light.And.Shade.CD2].专辑.(ape).ape" WAVE
  TRACK 01 AUDIO
    TITLE "Quicksilver"
    PERFORMER "Mike Oldfield"
    INDEX 01 00:00:00
    REM DATE 2005
    REM GENRE newage
    REM DISCID 5b098008
  TRACK 02 AUDIO
    TITLE "Resolution"
    PERFORMER "Mike Oldfield"
    INDEX 01 05:55:36
    REM DATE 2005
    REM GENRE newage
    REM DISCID 5b098008
  TRACK 03 AUDIO
    TITLE "Slipstream"
    PERFORMER "Mike Oldfield"
    INDEX 01 10:28:69
    REM DATE 2005
    REM GENRE newage
    REM DISCID 5b098008
  TRACK 04 AUDIO
    TITLE "Surfing"
    PERFORMER "Mike Oldfield"
    INDEX 01 15:43:71
    REM DATE 2005
    REM GENRE newage
    REM DISCID 5b098008
  TRACK 05 AUDIO
    TITLE "Tears Of An Angel"
    PERFORMER "Mike Oldfield"
    INDEX 01 21:20:00
    REM DATE 2005
    REM GENRE newage
    REM DISCID 5b098008
  TRACK 06 AUDIO
    TITLE "Romance"
    PERFORMER "Mike Oldfield"
    INDEX 01 26:58:03
    REM DATE 2005
    REM GENRE newage
    REM DISCID 5b098008
  TRACK 07 AUDIO
    TITLE "Ringscape"
    PERFORMER "Mike Oldfield"
    INDEX 01 30:58:38
    REM DATE 2005
    REM GENRE newage
    REM DISCID 5b098008
  TRACK 08 AUDIO
    TITLE "Nightshade"
    PERFORMER "Mike Oldfield"
    INDEX 01 35:20:65
    REM DATE 2005
    REM GENRE newage
    REM DISCID 5b098008





专辑曲目

CD1[Light]

1. Angelique
2. Blackbird
3. Gate
4. First Steps
5. Closer
6. Our Father
7. Rocky
8. Sunset

CD2[Shade]

1. Quicksilver
2. Resolution
3. Slipstream
4. Surfing
5. Tears Of An Angel
6. Romance
7. Ringscape
8. Nightshade

正在读取……

这里是其它用户补充的资源(我也要补充):

暂无补充资源
正在加载,请稍等...

点击查看所有12网友评论

 

(?) [公告]留口水、评论相关规则 | [活动]每日签到 轻松领取电驴经验

    小贴士:
  1. 类似“顶”、“沙发”之类没有营养的文字,对勤劳贡献的楼主来说是令人沮丧的反馈信息。
  2. 提问之前请再仔细看一遍楼主的说明,或许是您遗漏了。
  3. 勿催片。请相信驴友们对分享是富有激情的,如果确有更新版本,您一定能搜索到。
  4. 请勿到处挖坑绊人、招贴广告。既占空间让人厌烦,又没人会搭理,于人于己都无利。
  5. 如果您发现自己的评论不见了,请参考以上4条。