v

您的位置:VeryCD音乐古典音乐

音乐资源事务区


Clara.Ponty -《拥抱》(Embrace)[APE]

  • 状态: 精华资源
  • 摘要:
    发行时间1999年
  • 时间: 2005/12/13 08:53:26 发布 | 2005/12/13 08:53:26 更新
  • 分类: 音乐  古典音乐 

^O^清风

精华资源: 109

全部资源: 117

相关: 分享到新浪微博   转播到腾讯微博   分享到开心网   分享到人人   分享到QQ空间   订阅本资源RSS更新   美味书签  subtitle
该内容尚未提供权利证明,无法提供下载。
专辑英文名Embrace
专辑中文名拥抱
艺术家Clara.Ponty
资源格式APE
发行时间1999年
地区美国
语言英语
简介

IPB Image


专辑介绍:

  我相信,演奏自己做的曲子,那是一种幸福。

  每个音符都是自己描绘出来的,每一段旋律都代表自己的一种心灵的颤抖,所以,我更相信,作曲家的演奏往往更是原汁原味的体会。就算演奏起来不是流畅,却也听来更有内涵,更何况那些演奏技巧熟练的作曲家。而我相信Clara Ponty就是如此,这位作曲家兼演奏家,仅仅的2张专辑,却获得了大家的好评。

  最近发现了很多钢琴主旋律的音乐作品,而绝大部分成功的作者都是自己编曲自己演奏的.而每一个都有自己的特点和色调,冷色的,暖色的,平和的,或者浪漫细腻的。而Clara Ponty的作品在于那种纯粹的New Age Music风格,清新,流畅而电子合成器的配合更显脱俗,如果说音乐可以顺畅你的情绪,那么就应该是她的作品了。那种旋律不会让你沉思,不会让你迷醉,只是让你感觉雨后清新的,深深的呼吸乾净的空气。

  聆听Clara Ponty的"Embrace",给我的感觉是那么紧凑的,没有延长的旋律没有慢慢的牵引。跳跃着,灵动着,而钢琴的旋律灵巧的如同山涧中的溪流转折着弯曲的河道,跳跃着山石的落差,飞溅着蹦跳的河鱼。最后,在不断的汇聚中,不断的壮大中,轰然跃入大河的怀抱。那种不落俗套的风格,充满了一种印象派的风格,空灵而充满想象,轻盈的步伐,更多体现在钢琴的高音琴键上的运用。那种延续了乔治·温斯顿的音乐风格,却更显飘浮。同时添加了女声的伴唱,攀沿着钢琴的清脆而上,女声同样是插上翅膀的天使般透明亮丽,二者没有冲突和打压,彼此烘托和扶持。

  作者让音符起舞,让旋律盘旋,始终围绕在你的四周,而音乐轻柔的按摩你酸痛的腰背,舒缓你紧张的神经,慢慢的不断的积压过来,靠近你靠近你,最后用全部的旋律来拥抱你,让你感受一种音乐的粘潋。并且牵引着你的思绪,一起飞翔,不用思考,不用回忆,只需要你跟着音符的跳动而欢笑就足够了。(文章摘自网络)

转自逸居园:
http://www.yijuy.com/bbs/dispbbs.asp?board...7&page=1
感谢MegRy朋友的发布!


CUE文件:

ps:此APE文件已经加入CUESHEET,可在FOOBAR下不用CUE直接听!

代码
PERFORMER "Clara Ponty"
TITLE "Embrace"
FILE "Clara.Ponty.-.[拥抱(Embrace)].专辑.(ape).ape" WAVE
  TRACK 01 AUDIO
    TITLE "Pierrot"
    PERFORMER "Clara Ponty"
    FLAGS DCP
    INDEX 01 00:00:00
  TRACK 02 AUDIO
    TITLE "Migration"
    PERFORMER "Clara Ponty"
    FLAGS DCP
    INDEX 00 04:23:70
    INDEX 01 04:25:71
  TRACK 03 AUDIO
    TITLE "The Embrace"
    PERFORMER "Clara Ponty"
    FLAGS DCP
    INDEX 00 08:03:39
    INDEX 01 08:05:40
  TRACK 04 AUDIO
    TITLE "Echo"
    PERFORMER "Clara Ponty"
    FLAGS DCP
    INDEX 00 11:58:48
    INDEX 01 12:00:49
  TRACK 05 AUDIO
    TITLE "Rapture"
    PERFORMER "Clara Ponty"
    FLAGS DCP
    INDEX 00 16:21:11
    INDEX 01 16:23:12
  TRACK 06 AUDIO
    TITLE "Les Berceaux(The Cradles)"
    PERFORMER "Clara Ponty"
    FLAGS DCP
    INDEX 00 19:25:48
    INDEX 01 19:27:49
  TRACK 07 AUDIO
    TITLE "Spirit Dancer"
    PERFORMER "Clara Ponty"
    FLAGS DCP
    INDEX 00 21:54:63
    INDEX 01 21:56:63
  TRACK 08 AUDIO
    TITLE "Lasting Peace(Lissauer/Ponty)"
    PERFORMER "Clara Ponty"
    FLAGS DCP
    INDEX 00 26:23:08
    INDEX 01 26:25:07
  TRACK 09 AUDIO
    TITLE "Crystalline"
    PERFORMER "Clara Ponty"
    FLAGS DCP
    INDEX 00 30:18:35
    INDEX 01 30:20:36
  TRACK 10 AUDIO
    TITLE "Bridge of Clear Light"
    PERFORMER "Clara Ponty"
    FLAGS DCP
    INDEX 00 34:45:27
    INDEX 01 34:47:28



专辑曲目

01.Pierrot
02.Migration
03.The Embrace
04.Echo
05.Rapture
06.Les Berceaux(The Cradles)
07.Spirit Dancer
08.Lasting Peace(Lissauer/Ponty)
09.Crystalline
10.Bridge of Clear Light

正在读取……

这里是其它用户补充的资源(我也要补充):

暂无补充资源
正在加载,请稍等...

点击查看所有4网友评论

 

(?) [公告]留口水、评论相关规则 | [活动]每日签到 轻松领取电驴经验

    小贴士:
  1. 类似“顶”、“沙发”之类没有营养的文字,对勤劳贡献的楼主来说是令人沮丧的反馈信息。
  2. 提问之前请再仔细看一遍楼主的说明,或许是您遗漏了。
  3. 勿催片。请相信驴友们对分享是富有激情的,如果确有更新版本,您一定能搜索到。
  4. 请勿到处挖坑绊人、招贴广告。既占空间让人厌烦,又没人会搭理,于人于己都无利。
  5. 如果您发现自己的评论不见了,请参考以上4条。