v

您的位置:VeryCD音乐古典音乐

音乐资源事务区


苏珊.希雅妮(Suzanne.Ciani) -《The.Private.Music.of.Suzanne.Ciani》[APE]

  • 状态: 精华资源
  • 摘要:
    发行时间1992年
  • 时间: 2005/12/13 08:34:03 发布 | 2005/12/13 08:34:03 更新
  • 分类: 音乐  古典音乐 

^O^清风

精华资源: 109

全部资源: 117

相关: 分享到新浪微博   转播到腾讯微博   分享到开心网   分享到人人   分享到QQ空间   订阅本资源RSS更新   美味书签  subtitle
该内容尚未提供权利证明,无法提供下载。
专辑中文名The.Private.Music.of.Suzanne.Ciani
资源格式APE
发行时间1992年
地区美国
语言英语
简介

IPB Image


专辑介绍:

  苏珊·希雅妮的音乐被美国乐坛如是形容“自然、纯净,彷佛是潜意识里最向往的温柔”。典雅唯美的钢琴与新世纪电子合成音乐之间原本很可能会是一种妥协的关系,但她却将二者完美结合,虽然音质旋律变化无穷,但音乐表情却是控制自如,因为对音乐的深刻体认,使得她能善用这样的语言去述说女人对感情的无限依恋,同时维持一种纯净自然的生命情怀。

转自逸居园:
http://www.yijuy.com/bbs/dispbbs.asp?boardid=24&id=15080
感谢mwm318朋友的发布和支持!


艺人介绍:

IPB Image

享誉全球的New Age女键盘音乐家苏珊·希雅妮,六岁时迷上了萧邦等的古典音乐作品而开始学钢琴,一路接受科班训练教育,最后取得加州大学柏克莱分校作曲硕士学位。毕业后她从事广告配乐,作品数度获得Clios等多项广告大奖肯定,1974年搬到人文荟萃的纽约大都会,曾与极微主义作曲家菲力浦?葛拉斯、爵士乐团Spyro Gyra合作过,1980年并在电影《名扬四海》中担任键盘配乐演出。连续发表两张个人专辑获得相当大的好评。1985年她加入Private Music唱片公司,但却始终在另一位艺人嫉妒中而倍感压抑。于是当她移居北加州海岸,认识后来的先生乔·安德森﹙他是专研娱乐法令的律师﹚后,遂以首张专辑《Seven Waves》为灵感,成立了自己的品牌「Seventh Waves」﹙7是她的幸运数字﹚,乔担任公司总裁,苏珊·希雅妮则是制作总监。旗下除了苏珊外,还有黑人钢琴家罗伊·恩特、女竖琴家乔治雅·凯莉、键盘配乐家麦可·霍普、派屈克·米瑞﹙都是她的朋友﹚等艺人。

  爱情滋润与幸福归宿的安全感更使得她的创作泉源毫不枯竭,这在她成婚立业后发表的首张专辑《琴梦》中,引入CD-Extra交互式多媒体光盘技术可以证明。这张专辑苏珊找了大姊玛莉担任计算机画、油画等效果的制作,无论视觉或听觉上都带给人们幸福温馨的感受。身为意大利移民地三代的她,偏爱沛沛·罗密欧、帕可·迪鲁西亚的音乐与意大利歌曲。她自承作品中有许多灵感来自于海洋和异国风情﹙荷兰、意大利、西班牙﹚,浪漫感性的浓厚拉丁色彩在她作品中随处可见,创作媒介则从早期的电子音乐延伸到自然乐器、管弦乐。她的《奇幻世界》《月光旅站》、《琴梦》、《低语轻诉》等专辑四度获得葛莱美奖提名。

  她被美国乐坛喻为「…自然,纯净,彷佛是潜意识里最向往的温柔」。苏珊的音乐创作表达出她个人独有的成熟、创新风格,最难得的是:自她发行首张个人专辑至今十六年来,她的音乐始终富有情感,而不是充满匠气的表现。典雅唯美的钢琴,与新世纪电子合成音乐(New Age)之间,原本很可能会是一种妥协的关系,但苏珊·希雅妮却将二者完美结合,虽然音质旋律变化无穷,而音乐表情却是控制自如,因为对音乐的深刻体认,使得她能善用这样的语言,去述说女人对感情的无限依恋,同时维持一种纯净自然的生命情怀。

以上资料转自:
http://bbs.VeryCD.com/topics/264285/
感谢ayalinke兄的发布!


CUE文件:

ps:此APE文件已经加入CUESHEET,可在FOOBAR下不用CUE直接听!

代码
PERFORMER "Suzanne Ciani"
TITLE "The Private Music Of Suzanne Ciani"
FILE "苏珊.希雅妮(Suzanne.Ciani).-.[The.Private.Music.of.Suzanne.Ciani].专辑.(ape).ape" WAVE
  TRACK 01 AUDIO
    TITLE "Anthem"
    PERFORMER "Suzanne Ciani"
    INDEX 00 00:00:00
    INDEX 01 00:00:32
    REM DATE 1992
    REM GENRE Newage
    REM DISCID de0ea70e
  TRACK 02 AUDIO
    TITLE "Ondine"
    PERFORMER "Suzanne Ciani"
    INDEX 00 03:55:42
    INDEX 01 03:59:00
    REM DATE 1992
    REM GENRE Newage
    REM DISCID de0ea70e
  TRACK 03 AUDIO
    TITLE "Italia"
    PERFORMER "Suzanne Ciani"
    INDEX 00 07:51:25
    INDEX 01 07:54:37
    REM DATE 1992
    REM GENRE Newage
    REM DISCID de0ea70e
  TRACK 04 AUDIO
    TITLE "Berceuse"
    PERFORMER "Suzanne Ciani"
    INDEX 00 11:18:25
    INDEX 01 11:21:47
    REM DATE 1992
    REM GENRE Newage
    REM DISCID de0ea70e
  TRACK 05 AUDIO
    TITLE "Hotel Luna"
    PERFORMER "Suzanne Ciani"
    INDEX 00 15:39:37
    INDEX 01 15:41:62
    REM DATE 1992
    REM GENRE Newage
    REM DISCID de0ea70e
  TRACK 06 AUDIO
    TITLE "Mozart"
    PERFORMER "Suzanne Ciani"
    INDEX 00 19:53:35
    INDEX 01 19:56:40
    REM DATE 1992
    REM GENRE Newage
    REM DISCID de0ea70e
  TRACK 07 AUDIO
    TITLE "The Fifth Wave"
    PERFORMER "Suzanne Ciani"
    INDEX 00 23:54:20
    INDEX 01 23:57:50
    REM DATE 1992
    REM GENRE Newage
    REM DISCID de0ea70e
  TRACK 08 AUDIO
    TITLE "The Velocity Of Love"
    PERFORMER "Suzanne Ciani"
    INDEX 00 29:45:47
    INDEX 01 29:47:35
    REM DATE 1992
    REM GENRE Newage
    REM DISCID de0ea70e
  TRACK 09 AUDIO
    TITLE "Sailing To Byzantium"
    PERFORMER "Suzanne Ciani"
    INDEX 00 34:17:12
    INDEX 01 34:18:50
    REM DATE 1992
    REM GENRE Newage
    REM DISCID de0ea70e
  TRACK 10 AUDIO
    TITLE "Inverness"
    PERFORMER "Suzanne Ciani"
    INDEX 00 40:01:32
    INDEX 01 40:05:10
    REM DATE 1992
    REM GENRE Newage
    REM DISCID de0ea70e
  TRACK 11 AUDIO
    TITLE "Neverland"
    PERFORMER "Suzanne Ciani"
    INDEX 00 44:51:55
    INDEX 01 44:56:10
    REM DATE 1992
    REM GENRE Newage
    REM DISCID de0ea70e
  TRACK 12 AUDIO
    TITLE "Tuscany"
    PERFORMER "Suzanne Ciani"
    INDEX 00 48:51:72
    INDEX 01 48:52:27
    REM DATE 1992
    REM GENRE Newage
    REM DISCID de0ea70e
  TRACK 13 AUDIO
    TITLE "Drifting"
    PERFORMER "Suzanne Ciani"
    INDEX 00 52:31:52
    INDEX 01 52:35:07
    REM DATE 1992
    REM GENRE Newage
    REM DISCID de0ea70e
  TRACK 14 AUDIO
    TITLE "Go Gently"
    PERFORMER "Suzanne Ciani"
    INDEX 00 57:33:52
    INDEX 01 57:37:47
    REM DATE 1992
    REM GENRE Newage
    REM DISCID de0ea70e



专辑曲目

1. Anthem
2. Ondine
3. Italia
4. Berceuse
5. Hotel Luna
6. Mozart
7. The Fifth Wave
8. The Velocity Of Love
9. Sailing To Byzantium (prev. unreleased)
10.Inverness
11.Neverland
12.Tuscany
13.Drifting
14.Go Gently (previously unreleased)

正在读取……

这里是其它用户补充的资源(我也要补充):

暂无补充资源
正在加载,请稍等...

点击查看所有8网友评论

 

(?) [公告]留口水、评论相关规则 | [活动]每日签到 轻松领取电驴经验

    小贴士:
  1. 类似“顶”、“沙发”之类没有营养的文字,对勤劳贡献的楼主来说是令人沮丧的反馈信息。
  2. 提问之前请再仔细看一遍楼主的说明,或许是您遗漏了。
  3. 勿催片。请相信驴友们对分享是富有激情的,如果确有更新版本,您一定能搜索到。
  4. 请勿到处挖坑绊人、招贴广告。既占空间让人厌烦,又没人会搭理,于人于己都无利。
  5. 如果您发现自己的评论不见了,请参考以上4条。