v

您的位置:VeryCD音乐古典音乐

音乐资源事务区


Al Di Meola & John McLaughlin & Paco de Lucia -《弗拉门戈吉他三重奏》(Friday Night in San Francisco)[APE]

  • 状态: 精华资源
  • 摘要:
    发行时间1981年
  • 时间: 2005/12/12 20:26:04 发布 | 2005/12/12 20:26:04 更新
  • 分类: 音乐  古典音乐 

laiganyan

精华资源: 6

全部资源: 7

相关: 分享到新浪微博   转播到腾讯微博   分享到开心网   分享到人人   分享到QQ空间   订阅本资源RSS更新   美味书签  subtitle
该内容尚未提供权利证明,无法提供下载。
专辑英文名Friday Night in San Francisco
专辑中文名弗拉门戈吉他三重奏
资源格式APE
发行时间1981年
简介

IPB Image


专辑介绍:

爵士乐界三大吉他手约翰.麦克劳夫伦,艾尔.迪.梅尔拉,帕可.迪.鲁奇亚在某日星期五的夜晚,相互竞飆手指的速度,散播佛朗明哥的热情,令人大呼过癮。史上最佳吉他现场竞技,喜爱吉他演奏必备名盘。
爵士吉他界的速弹高手: 艾尔˙迪˙米欧拉(Al Di Meola, 1954~)
义大利裔的Al Di Meola,在Berklee音乐学院就读时因爵士钢琴家Chick Corea的赏识,而加入其融合爵士乐团Return To Forever,成为70年代融合爵士乐的要角之一。而当Return To Forever於80年解散之后,他逐渐回归使用木吉他演奏,并与融合爵士吉他大师John McLaughlin、佛朗明哥吉他好手Paco De Lucia等人一同巡迴演出。三人所录製的Friday Night in San Francisco(1982)与Passion, Grace & Fire(1983)更成为爵士吉他的重要名盘。
自85年起他组成了自己的乐团The Al Di Meola Project,并不断地在各种音乐风格以及电吉他、木吉他之间来回游走,试图打破一般乐迷对他的"速弹吉他手"的印象。他也吸收许多拉丁美州及其他世界音乐的元素,融入他的演奏当中: 如1985年的Cielo E Terra,便带有浓厚的神秘意味。其重要作品还包括了World Sinfonia(1991)、Heart of the Immigrants(1993)及Orange and Blue(1994)等。又如1996年的Plays Piazzolla,则是他对阿根廷探戈音乐大师Astor Piazzolla的致敬专辑。在2000年的新专辑The Grande Passion中,他更与多伦多管絃乐团合作,展现他深厚的古典基础与作曲功力。


欣赏重点:

 1. 这是一张1980年在美国三藩市The Warfield Theatre举行的吉他三重奏演会现场录音演奏专辑。不要以为只有五首乐曲就不划算,其实每首乐曲的时间都很长,第一首的MEDITERRANEAN SUNDANCE就超过11分钟了!
 2. 要注意一下三位吉他手在CD中的演奏位置。例如第一首MEDITERRANEAN SUNDANCE Al Di Meola在右边弹他的Ovation Steel string acoustic guitar,而在左边弹西班牙Nylon string acoustic guitar的则是Paco De Lucia。三位不同国藉的吉他大师【Al Di Meola→美国;John Mclaughlin→ 英国; Paco De Lucia→ 西班牙】的弹奏手法也是欣赏重点,尤其在伴奏时,Paco使用的Flamingo手法,就跟弹Jazz出身的Al及John有着很明显的不同。此外Paco弹奏时是以手指拨弦的,跟Al以pick弹奏的风格形成很强烈的对比。第一首MEDITERRANEAN SUNDANCE就是其中的典范。
 3. 在本专辑中,三位大师合作默契绝佳的吉他演奏;真是可以用登峰造极来形容,说『它』是同类型或是吉他演奏专辑的极终典范也绝不为过!弹吉他的朋友若还未听过这唱片,那真是人生一大憾事.............
 4. 认为Yugwie.J.Malmsteen是世上最快吉他手的摇滚死忠乐迷不妨也买来听听,了解一下甚麽才叫做『弹吉他』甚麽才叫『快』!然后再想像一下当Yugwie把effect拿掉手持一把木吉他,面对着三位超级大师的狼狈模样吧!
 吉他极品,传世之作,无以伦比的现场演义,再现吉他大师的激情与技巧!
 俯耳听来……

这里是256KBPS的MP3
http://lib.VeryCD.com/2005/07/28/0000058517.html
感谢assaw朋友的发布
常驻ed2k://|server|219.149.195.134|4232|/服务器

本APE使用MONKEY's audio 3.99f版,使用以前版的MONKEY's audio解压缩会出现错误.请更新到3.99f版....

CUE文件:

代码
PERFORMER "Al Di Meola, John McLaughlin, Paco de Lucia"
TITLE "Friday Night in San Francisco"
FILE "Various.Artists.-.[Friday Night in San Francisco].专辑.(APE).wav" WAVE
  TRACK 01 AUDIO
    TITLE "Mediterranean Sundance / Rio Ancho"
    PERFORMER "Al Di Meola, John McLaughlin, Paco de Lucia"
    FLAGS DCP
    INDEX 01 00:00:00
  TRACK 02 AUDIO
    TITLE "Short Tales Of The Black Forest"
    PERFORMER "Al Di Meola, John McLaughlin, Paco de Lucia"
    FLAGS DCP
    INDEX 01 11:35:42
  TRACK 03 AUDIO
    TITLE "Frevo Rasgado"
    PERFORMER "Al Di Meola, John McLaughlin, Paco de Lucia"
    FLAGS DCP
    INDEX 01 20:19:47
  TRACK 04 AUDIO
    TITLE "Fantasia Suite"
    PERFORMER "Al Di Meola, John McLaughlin, Paco de Lucia"
    FLAGS DCP
    INDEX 01 28:16:67
  TRACK 05 AUDIO
    TITLE "Guardian Angel"
    PERFORMER "Al Di Meola, John McLaughlin, Paco de Lucia"
    FLAGS DCP
    INDEX 01 37:11:27



专辑曲目

1 Mediterranean Sundance/Rio Ancho
2 Short Tales Of The Black Forest
3 Frevo Rasgado
4 Fantasia Suite
5 Guardian Angel

正在读取……

这里是其它用户补充的资源(我也要补充):

暂无补充资源
正在加载,请稍等...

点击查看所有47网友评论

 

(?) [公告]留口水、评论相关规则 | [活动]每日签到 轻松领取电驴经验

    小贴士:
  1. 类似“顶”、“沙发”之类没有营养的文字,对勤劳贡献的楼主来说是令人沮丧的反馈信息。
  2. 提问之前请再仔细看一遍楼主的说明,或许是您遗漏了。
  3. 勿催片。请相信驴友们对分享是富有激情的,如果确有更新版本,您一定能搜索到。
  4. 请勿到处挖坑绊人、招贴广告。既占空间让人厌烦,又没人会搭理,于人于己都无利。
  5. 如果您发现自己的评论不见了,请参考以上4条。