v

您的位置:VeryCD音乐古典音乐

音乐资源事务区


雷恩.寇伯(Ron.Korb) -《龙笛》(Taming.The.Dragon)[APE]

  • 状态: 精华资源
  • 摘要:
  • 时间: 2005/12/10 10:19:46 发布 | 2005/12/10 10:19:46 更新
  • 分类: 音乐  古典音乐 

^O^清风

精华资源: 109

全部资源: 117

相关: 分享到新浪微博   转播到腾讯微博   分享到开心网   分享到人人   分享到QQ空间   订阅本资源RSS更新   美味书签  subtitle
该内容尚未提供权利证明,无法提供下载。
专辑英文名Taming.The.Dragon
专辑中文名龙笛
资源格式APE
简介

IPB Image


专辑介绍:

被誉为是当代第一魔笛手

有人说龙笛的声音,像龙的低吟;

神秘深沉的北印度竹笛,能催酵爱意;

日本薄笛,据说与天神的呢喃拥有相同频率……

製作人─雷恩.寇伯

发行过九张跨国专辑,全球超过十六个国家邀请登台演出,

他被誉为是当代第一魔笛手。专精长笛、低音长笛、爱尔

兰横笛、一便士笛、中国竹笛等十五种世界各地的管乐,

堪称当今乐坛第一人。

转自逸居园:
http://www.yijuy.com/bbs/dispbbs.asp?board...3&page=1
感谢rabbin朋友的发布!

友情连接:(APE)
http://bbs.VeryCD.com/topics/250110/
RON KORB(雷恩·寇伯) -《心灵秘境-探索凯尔特音乐最核心》(celtic heartland)[APE]
感谢坐云上的猪朋友的发布!


CUE文件:

ps:此APE文件已经加入CUESHEET,可在FOOBAR下不用CUE直接听!

代码
PERFORMER "Ron Korb"
TITLE "Taming The Dragon"
FILE "雷恩.寇伯(Ron.Korb).-.[龙笛(Taming.The.Dragon)].专辑.(ape).ape" WAVE
  TRACK 01 AUDIO
    TITLE "Yamatai"
    PERFORMER "Ron Korb"
    INDEX 01 00:00:00
  TRACK 02 AUDIO
    TITLE "Tokaido Eastern Sea Route"
    PERFORMER "Ron Korb"
    INDEX 00 04:52:20
    INDEX 01 04:55:17
  TRACK 03 AUDIO
    TITLE "Todaiji"
    PERFORMER "Ron Korb"
    INDEX 00 08:09:07
    INDEX 01 08:12:05
  TRACK 04 AUDIO
    TITLE "Mitra's Song"
    PERFORMER "Ron Korb"
    INDEX 00 12:10:25
    INDEX 01 12:13:22
  TRACK 05 AUDIO
    TITLE "Shadow Montage"
    PERFORMER "Ron Korb"
    INDEX 00 15:44:47
    INDEX 01 15:47:45
  TRACK 06 AUDIO
    TITLE "Heart Of Passion"
    PERFORMER "Ron Korb"
    INDEX 00 19:31:30
    INDEX 01 19:34:27
  TRACK 07 AUDIO
    TITLE "Isolation"
    PERFORMER "Ron Korb"
    INDEX 00 27:33:02
    INDEX 01 27:36:00
  TRACK 08 AUDIO
    TITLE "Warrior's Dance"
    PERFORMER "Ron Korb"
    INDEX 00 29:31:70
    INDEX 01 29:34:67
  TRACK 09 AUDIO
    TITLE "Spirit Of India"
    PERFORMER "Ron Korb"
    INDEX 00 34:31:07
    INDEX 01 34:34:05
  TRACK 10 AUDIO
    TITLE "SentierInconnu"
    PERFORMER "Ron Korb"
    INDEX 00 40:02:55
    INDEX 01 40:05:52
  TRACK 11 AUDIO
    TITLE "Dragon Eyes"
    PERFORMER "Ron Korb"
    INDEX 00 43:20:40
    INDEX 01 43:23:37
  TRACK 12 AUDIO
    TITLE "The Scared Sword"
    PERFORMER "Ron Korb"
    INDEX 00 45:25:47
    INDEX 01 45:28:45



专辑曲目

1、Yamatai 4:53
2、Tokaido Eastern Sea route 3:12
3、Todaiji 3:57
4、Mitra’Song 3:32
5、Shadow Montage 3:47
6、Heart Of Passion 8:00
7、Isolation 1:56
8、Warrior’s Dance 4:56
9、Spirit of India 5:29
10、Sentier Inconnu 3:14
11、Dragon Eyes 2:02
12、The Sacred Sword 8:15

正在读取……

这里是其它用户补充的资源(我也要补充):

暂无补充资源
正在加载,请稍等...

点击查看所有36网友评论

 

(?) [公告]留口水、评论相关规则 | [活动]每日签到 轻松领取电驴经验

    小贴士:
  1. 类似“顶”、“沙发”之类没有营养的文字,对勤劳贡献的楼主来说是令人沮丧的反馈信息。
  2. 提问之前请再仔细看一遍楼主的说明,或许是您遗漏了。
  3. 勿催片。请相信驴友们对分享是富有激情的,如果确有更新版本,您一定能搜索到。
  4. 请勿到处挖坑绊人、招贴广告。既占空间让人厌烦,又没人会搭理,于人于己都无利。
  5. 如果您发现自己的评论不见了,请参考以上4条。