v

您的位置:VeryCD音乐古典音乐

音乐资源事务区


Mantovani -《醉人黄昏.曼托凡尼最佳之最》(The.Very.Best.of.Mantovani)[APE]

  • 状态: 精华资源
  • 摘要:
    发行时间1998年
  • 时间: 2005/12/10 09:47:42 发布 | 2005/12/10 09:47:42 更新
  • 分类: 音乐  古典音乐 

^O^清风

精华资源: 109

全部资源: 117

相关: 分享到新浪微博   转播到腾讯微博   分享到开心网   分享到人人   分享到QQ空间   订阅本资源RSS更新   美味书签  subtitle
该内容尚未提供权利证明,无法提供下载。
专辑英文名The.Very.Best.of.Mantovani
专辑中文名醉人黄昏.曼托凡尼最佳之最
艺术家Mantovani
资源格式APE
发行时间1998年
地区英国
语言英语
简介

IPB Image


专辑简介:

  《音像世界》曾称这套唱片为R2D4,给予了极高的评价。何谓R2D4,英美人常将TO简化成2,而For则可写为4。那么这里的R和D又是什么含意呢?R是Records的缩写,而D则表示Die。很明显,R2D4被破译出来就是Records To Die For-“死都要听”。它的创意来自美国发烧级天书《Stereophile》,该书经常会开出一份名单,煽动发烧友去听一些他们认为极品的器材和唱片,标题就是R2D4。

  事实上,几十年来听“曼托凡尼之声”长大的乐迷绝非寡众,曼托凡尼轻音乐团的演奏风格流畅舒展,旋律优美动听,音响华丽丰满。虽然从未享受过他那销魂蚀骨的音乐,未见得要立刻去死,却可以肯定是音乐生活中的最大遗憾!曼托凡尼那如瀑布,象丝绸般的重弦乐音响,时而飞流直下三千尺,时而好象波澜不兴的辽阔大海,曼妙舞动间能带给人如沐春风或雨后初晴般的喜悦,让一般的人也在不知不觉中爱上了高格调的音乐。

  这个乐团的指挥曼托凡尼1905年生于意大利威尼斯的一个音乐世家,父亲曾是托斯卡尼尼乐队的首席小提琴手。曼托凡尼自小在父亲的指导下学习小提琴,青年时代举家迁居英国,考入伦敦音乐学院。16岁即公开演出布鲁赫和圣桑的小提琴协奏曲。18岁时,他在伯明翰组织了一只六人乐队,在旅馆和剧院作职业性演出,以演奏轻音乐为主,他是乐队的主要小提琴手。他那清湛的演奏技巧和华丽明朗的美妙琴声,使人听后回味无穷,于是当时的他就已经以小提琴演奏家的身份赢得巨大的声望。1933年,曼托凡尼加入了英国籍,此后他重新组建了一个以弦乐为主的庞大的管弦乐团,这就是后来的曼托凡尼乐团。

  曼托凡尼从管弦乐团的弦乐器中找到了富有特殊色彩的音响,这种富有特色的弦乐演奏,就此成为他乐团所特有的音乐特色。此后,曼托凡尼改编了大量雅俗共赏、和谐悦耳的乐曲,听众给他的乐团取了一个“曼托凡尼之声”的雅号。相比那些喧杂热烈的现代流行音乐来说,曼托凡尼的音乐无疑是一服令人舒畅的清凉剂。曼托凡尼的成功,主要在于他充分了解小提琴的表现方式,并能恰如其分地驾驭管弦乐队,使整个乐队非常精确地表达出这位小提琴家所特有的演奏风格,使听众为之倾到。

  在五、六十年代,曼托凡尼的演奏几乎风靡了世界每一个角落,成为人听人爱的美乐,唱片畅销数十年,并成为全球首位立体声LP销量突破一百万的音乐家。而在中国,曼托凡尼亦是在“文革”之后的各地广播电台中播放率最高的外国音乐代表,当年他那抒情清新的乐韵,不知让多少的中国乐迷领略了“外面的”音乐世界,从而留下了无数美丽的回忆。

  作为同属环球宝丽金集团旗下的着名古典音乐品牌,出版本碟的英国Decca(笛卡)唱片公司和德国的DG相比,规模、历史、艺人阵容可能都相去甚远。但是在爱乐者和发烧友的心目中,Decca录音所特有的开阔而深远的音场空间感、透明度一流的秀美音色,如临现场的精确定位,以及华丽自然、辉煌而不刺耳的音域平衡度,已经和其蓝红相间的商标一样,成为了独树一帜、无可替代的黄金招牌。在艺术家的阵容上,Decca最引以为傲的是曾签约旗下40年多年的专属指挥大师乔治·索尔蒂爵士,他不仅为Decca创下了唱片史上的惊世巨献《指环》,更是世上获得葛莱美奖项最多的艺人,声望盖天。此外还有C高音之王帕瓦洛蒂、女歌唱家迪·卡娜娃、钢琴名家何什肯纳奇、小提琴女将郑京和等等。再有,迷倒世人的轻音乐团曼托凡尼、美国爵士乐传奇艾灵顿公爵、名歌手平·克劳斯贝等也曾为Decca留下珍贵的录音。由此可见,Decca是英伦之岛唯一可与百年老牌EMI相匹敌的古典唱片厂牌。

  录音方面,Decca在50年代立体声录音的萌芽时期,就已经由资深录音师K.E.Wilkinson(威尔金森)发明了一种的独特的麦克风摆放阵式。这种后来被称为“The Decca Tree”的“麦克风树”,是以一组位于支架左右的麦克风和另一支垂直在适当距离的麦克风为主,这三支话筒构成的“麦克风树”矗立舞台,配合其他麦克风的辅助,可将单点和多点方式录音的优缺点加以妥协,创造出细致、平衡又不失动态的录音效果。这种录音技术确立了Decca以后的录音风格,拥有最平衡的音域和最深阔的音场,音质流光溢彩,华丽无比。曼托凡尼乐团是当年第一次尝试这种录音技术的乐团,其后这一摆法被推广到Decca的古典管弦乐和歌剧录音中,取得重大的成功。

  为了使新一代乐迷摆脱时下大量平庸无聊的商业流行音乐的污染,重新找回健康和更高层次的音乐品位,Decca动用先进的数码混音器材将曼托凡尼黄金年代的精华曲目重新整理,辑成这套双CD精选集。这套CD的封套选用曼氏故乡意大利威尼斯的醉人景色。晕黄的晚霞中,一对恋人在静静的港湾相拥而吻,正好与唱片的主题《醉人黄昏》不谋而合。

  每张CD收录的19段乐曲除乐迷早已耳熟能详的经典外,亦有多首在以前类似精选碟中没有收录过的,其中更有一些冷僻曲目保证国内的乐迷第一次听到。

  《The very best of Mantovani》(曼陀凡尼精选大碟),系着名的迪卡(DECCA)公司模拟录音时代的佳作,弦乐甜美绝伦,松香味道十足。双cd,38首动人乐曲, 98年重新制作发行,坊间应不难觅。其录音效果秉承了迪卡一贯的特色:低音雄浑,中音丰厚,高音圆滑,其空间感、层次感更属一流。

  该碟的曲目绝对不会令你陌生。如《MOON RI 》、《AROUND THE WORLD》、《AS TIME GOES BY》、《SMOKE GETS IN YOUR EYES》、《AND I LOVE YOU SO》、《MY WAY》等等,在曼陀凡尼的魔棒下,再度魅惑你的耳朵和心灵。尤其是A碟的第一首《CHARMAINE》,为曼陀凡尼的成名作。乐声甫起,如一线飞瀑倾泻而下,挟着沁人肺腑的芬芳,流进你荒芜的心田。在昔年曼陀凡尼的音乐会上,这一段往往赢得经久不息的阵阵掌声!

  该碟的封面颇具特色,如抽象派画师的梦幻之作:港口,飞鸟,守望者,拥吻的恋人,都在一片黯黄的夕阳里。

转自逸居园:
http://www.yijuy.com/bbs/dispbbs.asp?board...0&page=1
感谢带头大哥朋友的发布!

友情连接:(MP3)
http://bbs.VeryCD.com/topics/256118/
感谢Vikings朋友的发布!


CUE文件:

ps:此APE文件已经加入CUESHEET,可在FOOBAR下不用CUE直接听!

1.CD1:

代码
PERFORMER "The Mantovani Orchestra"
TITLE "The Very Best of Mantovani - CD 1"
FILE "Mantovani.-.[The.Very.Best.of.Mantovani.CD1].专辑.(ape).ape" WAVE
  TRACK 01 AUDIO
    TITLE "Charmaine"
    PERFORMER "The Mantovani Orchestra"
    INDEX 01 00:00:00
  TRACK 02 AUDIO
    TITLE "September Song"
    PERFORMER "The Mantovani Orchestra"
    INDEX 00 03:07:57
    INDEX 01 03:08:37
  TRACK 03 AUDIO
    TITLE "Stardust"
    PERFORMER "The Mantovani Orchestra"
    INDEX 00 05:49:45
    INDEX 01 05:50:25
  TRACK 04 AUDIO
    TITLE "Cara Mia"
    PERFORMER "The Mantovani Orchestra"
    INDEX 00 09:58:70
    INDEX 01 09:59:50
  TRACK 05 AUDIO
    TITLE "Moon River"
    PERFORMER "The Mantovani Orchestra"
    INDEX 00 13:01:60
    INDEX 01 13:02:40
  TRACK 06 AUDIO
    TITLE "Around The World"
    PERFORMER "The Mantovani Orchestra"
    INDEX 00 15:32:27
    INDEX 01 15:33:07
  TRACK 07 AUDIO
    TITLE "Try To Remember"
    PERFORMER "The Mantovani Orchestra"
    INDEX 00 17:37:37
    INDEX 01 17:38:17
  TRACK 08 AUDIO
    TITLE "Misty"
    PERFORMER "The Mantovani Orchestra"
    INDEX 00 20:19:70
    INDEX 01 20:20:50
  TRACK 09 AUDIO
    TITLE "A Walk In The Black Forest"
    PERFORMER "The Mantovani Orchestra"
    INDEX 00 24:52:22
    INDEX 01 24:53:02
  TRACK 10 AUDIO
    TITLE "Moulin Rouge"
    PERFORMER "The Mantovani Orchestra"
    INDEX 00 26:52:12
    INDEX 01 26:52:67
  TRACK 11 AUDIO
    TITLE "La Vie En Rose"
    PERFORMER "The Mantovani Orchestra"
    INDEX 00 29:43:00
    INDEX 01 29:43:55
  TRACK 12 AUDIO
    TITLE "Almost There"
    PERFORMER "The Mantovani Orchestra"
    INDEX 00 32:40:10
    INDEX 01 32:40:65
  TRACK 13 AUDIO
    TITLE "As Time Goes By"
    PERFORMER "The Mantovani Orchestra"
    INDEX 00 35:33:70
    INDEX 01 35:34:50
  TRACK 14 AUDIO
    TITLE "Warsaw Concerto"
    PERFORMER "The Mantovani Orchestra"
    INDEX 00 39:09:20
    INDEX 01 39:10:00
  TRACK 15 AUDIO
    TITLE "Swedisk Rhapsody"
    PERFORMER "The Mantovani Orchestra"
    INDEX 00 47:06:20
    INDEX 01 47:07:00
  TRACK 16 AUDIO
    TITLE "Autumn Leaves"
    PERFORMER "The Mantovani Orchestra"
    INDEX 00 49:45:17
    INDEX 01 49:45:72
  TRACK 17 AUDIO
    TITLE "More"
    PERFORMER "The Mantovani Orchestra"
    INDEX 00 53:58:50
    INDEX 01 53:59:30
  TRACK 18 AUDIO
    TITLE "Goodnight Sweetheart"
    PERFORMER "The Mantovani Orchestra"
    INDEX 00 57:14:62
    INDEX 01 57:15:42
  TRACK 19 AUDIO
    TITLE "Till"
    PERFORMER "The Mantovani Orchestra"
    INDEX 00 60:45:20
    INDEX 01 60:46:00


2.CD2:

代码
PERFORMER "The Mantovani Orchestra"
TITLE "The Very Best of Mantovani - CD 2"
FILE "Mantovani.-.[The.Very.Best.of.Mantovani.CD2].专辑.(ape).ape" WAVE
  TRACK 01 AUDIO
    TITLE "Some Enchanted Evening"
    PERFORMER "The Mantovani Orchestra"
    INDEX 01 00:00:00
  TRACK 02 AUDIO
    TITLE "And I Love Yopu So"
    PERFORMER "The Mantovani Orchestra"
    INDEX 00 03:32:20
    INDEX 01 03:33:00
  TRACK 03 AUDIO
    TITLE "I Wish You Love"
    PERFORMER "The Mantovani Orchestra"
    INDEX 00 06:16:07
    INDEX 01 06:16:62
  TRACK 04 AUDIO
    TITLE "Smoke Gets In Your Eyes"
    PERFORMER "The Mantovani Orchestra"
    INDEX 00 09:55:20
    INDEX 01 09:56:00
  TRACK 05 AUDIO
    TITLE "Lonely Ballerina"
    PERFORMER "The Mantovani Orchestra"
    INDEX 00 14:31:12
    INDEX 01 14:31:67
  TRACK 06 AUDIO
    TITLE "The Legend Of The Glass Mountain"
    PERFORMER "The Mantovani Orchestra"
    INDEX 00 17:21:02
    INDEX 01 17:21:57
  TRACK 07 AUDIO
    TITLE "Exodus (Main Theme From 'Gold')"
    PERFORMER "The Mantovani Orchestra"
    INDEX 00 21:12:67
    INDEX 01 21:13:47
  TRACK 08 AUDIO
    TITLE "Big Country"
    PERFORMER "The Mantovani Orchestra"
    INDEX 00 24:24:25
    INDEX 01 24:25:05
  TRACK 09 AUDIO
    TITLE "Elizabethan Serenade"
    PERFORMER "The Mantovani Orchestra"
    INDEX 00 27:21:55
    INDEX 01 27:22:35
  TRACK 10 AUDIO
    TITLE "Tenderly"
    PERFORMER "The Mantovani Orchestra"
    INDEX 00 30:35:12
    INDEX 01 30:35:67
  TRACK 11 AUDIO
    TITLE "The Days Of Wine And Roses"
    PERFORMER "The Mantovani Orchestra"
    INDEX 00 34:05:00
    INDEX 01 34:05:55
  TRACK 12 AUDIO
    TITLE "The Way You Look Tonight"
    PERFORMER "The Mantovani Orchestra"
    INDEX 00 36:33:63
    INDEX 01 36:34:42
  TRACK 13 AUDIO
    TITLE "Fool (You Didn't Have To Hurt Her)"
    PERFORMER "The Mantovani Orchestra"
    INDEX 00 39:21:52
    INDEX 01 39:22:32
  TRACK 14 AUDIO
    TITLE "How Are Things In Glocca Morra"
    PERFORMER "The Mantovani Orchestra"
    INDEX 00 42:46:05
    INDEX 01 42:46:60
  TRACK 15 AUDIO
    TITLE "Londonderry Air"
    PERFORMER "The Mantovani Orchestra"
    INDEX 00 46:29:61
    INDEX 01 46:30:40
  TRACK 16 AUDIO
    TITLE "Love Is A Many Splendoured Thing"
    PERFORMER "The Mantovani Orchestra"
    INDEX 00 50:41:50
    INDEX 01 50:42:30
  TRACK 17 AUDIO
    TITLE "My Way"
    PERFORMER "The Mantovani Orchestra"
    INDEX 00 54:41:37
    INDEX 01 54:42:17
  TRACK 18 AUDIO
    TITLE "The Very Thought Of You"
    PERFORMER "The Mantovani Orchestra"
    INDEX 00 58:04:50
    INDEX 01 58:05:30
  TRACK 19 AUDIO
    TITLE "Tonight (From 'West Side Story')"
    PERFORMER "The Mantovani Orchestra"
    INDEX 00 61:36:35
    INDEX 01 61:37:15

正在读取……

这里是其它用户补充的资源(我也要补充):

暂无补充资源
正在加载,请稍等...

点击查看所有77网友评论

 

(?) [公告]留口水、评论相关规则 | [活动]每日签到 轻松领取电驴经验

    小贴士:
  1. 类似“顶”、“沙发”之类没有营养的文字,对勤劳贡献的楼主来说是令人沮丧的反馈信息。
  2. 提问之前请再仔细看一遍楼主的说明,或许是您遗漏了。
  3. 勿催片。请相信驴友们对分享是富有激情的,如果确有更新版本,您一定能搜索到。
  4. 请勿到处挖坑绊人、招贴广告。既占空间让人厌烦,又没人会搭理,于人于己都无利。
  5. 如果您发现自己的评论不见了,请参考以上4条。