v

您的位置:VeryCD音乐古典音乐

音乐资源事务区


The.Choirboys -《The.Choirboys》[FLAC]

  • 状态: 精华资源
  • 摘要:
    发行时间2005年
  • 时间: 2005/12/09 09:45:17 发布 | 2005/12/09 09:45:17 更新
  • 分类: 音乐  古典音乐 

^O^清风

精华资源: 109

全部资源: 117

相关: 分享到新浪微博   转播到腾讯微博   分享到开心网   分享到人人   分享到QQ空间   订阅本资源RSS更新   美味书签  subtitle
该内容尚未提供权利证明,无法提供下载。
专辑中文名The.Choirboys
别名三小男高音
艺术家The.Choirboys
版本[FLAC]
发行时间2005年
地区英国
语言英语
简介

IPB Image


专辑介绍:

  华纳三小男高音新鲜出炉,再度演绎艾里克·克莱普顿(Eric Clapton)旧曲:《泪洒天堂》

[music]http://bbs.VeryCD.com/index.php?act=Attach&type=post&id=103422[/music]

  这首歌的原唱叫:艾里克·克莱普顿(Eric Clapton),一位英格兰布鲁斯歌手,一个大胡子的男人。《泪洒天堂》献给他死去的儿子的。1991年,克莱普顿4岁的儿子由于保姆的不慎意外坠楼身亡,这个打击几乎让他一蹶不振。从此他寄情于音乐,用不间断的创作缓解难以负荷的伤痛,用至情至胜的歌声超度死者的灵魂。用原名可在Google或百度中找到

  提起三大男高音,喜爱古典音乐的人几乎没有不知道的,现在曾与三大男高之一的帕瓦罗蒂签约的华纳公司,又签下了另外三位男高音歌手,不过他们的平均年龄还不到12岁。 伴随着悠扬的音乐,画面中这三位衣冠楚楚的小绅士就是我们要向你介绍的三小男高,他们分别是11岁的CJ以及12岁的帕特里克·艾斯贝里和本·英曼。

  这三位小歌手是华纳公司派出的星探在遍访英国50多个地区的教堂唱诗班后千挑万选出来的。在刚刚过去的暑假中,三小男高录制了他们的首张合唱专辑《天堂里的泪水》,并拍摄了MTV,为他们伴奏的是世界一流的英国弦乐室内乐团。《天堂里的泪水》本是英国蓝调大师埃里克·克莱普顿的作品,描述的是一个孩子死后进入天堂的故事。不过经三小男高清纯、透亮嗓音演绎,这首歌显得更加婉转、动人。

  别看这三个男孩在MTV中表现出一种超乎年龄的成熟,私下里他们也和邻家男孩一样活泼好动、涉猎广泛。除了古典音乐,他们对各种流行音乐也非常喜欢,而且和绝大多数英国人一样,他们都是超级球迷。

  艾里克·克莱普顿(Eric Clapton)与《泪洒天堂》
  素有“吉他之神”美誉的英国摇滚巨星艾里克·克莱普顿生于1945年,早年曾是一位布鲁斯乐手,后来成为重型摇滚乐的先锋之一。他在音乐界显赫的声望有一半来自现场精湛的吉他演奏。90年代后的第一张专辑就是他在1990-91年间于伦敦皇家亚伯厅的多场现场实况记录《24 Nights》,而在此之前他也发行过将近十套现场即兴表演的音乐专辑。

  克莱普顿的音乐松弛自然,演唱深切感人。1993年,他因为一曲《泪洒天堂(Tear in Heaven)》一举摘得当年格莱美的6项大奖;1997年他又因演唱《改变世界(Change the World)》而荣获格莱美的最佳男声歌曲奖。

《泪洒天堂》歌词:

Would you know my name
If I saw you in heaven?
Would you be the same
If I saw you in heaven?
I must be strong and carry on,
Because I know I don\'t belong here in heaven.

Would you hold my hand
If I saw you in heaven?
Would you help me stand
If I saw you in heaven?
I\'ll find my way through night and day,
Because I know I just can\'t stand here in heaven.

Time can bring you down,
Time can bend your knees,
Time can break your heart.
Have you begging please,
Begging please.

Beyond the door there\'s peace I\'m sure
And I know there\'ll be no more tears in heaven.

Would you know my name
If I saw you in heaven?
Would you be the same
If I saw you in heaven?
I must be strong and carry on,
Because I know I don\'t belong here in heaven.

你还记得我的名字吗
如果我在天堂遇见你
你我还能像从前一样吗
如果我在天堂遇见你
我必须坚强、坚持下去
因为我知道我并不属於天堂

你会握我的手吗
如果我在天堂遇见你
你会扶我一把吗
如果我在天堂遇见你
我会找到度日的方式
因为我知道我不能留在天堂

时间使人消沉
时间使人屈服
时间使人伤心
你是否向它求饶

在那道门后,必定是一片祥和
而我知道将不再有人泪洒天堂……

特别非常万分感谢zhenlove2002朋友的发布和支持!!!!!
MP3下载地址:
http://bbs.VeryCD.com/topics/261865/

官方网:

http://www.thechoirboys.co.uk/site.php

The Choirboys图片介绍:
1.全家福:
IPB Image

2.PATRICK:
IPB Image

3.BEN:
IPB Image

4.CJ:
IPB Image

CUE文件:

ps:此FLAC文件已经加入CUESHEET,可在FOOBAR下不用CUE直接听!

代码
REM GENRE POP
REM DATE 2005
REM DISCID F80DF310
REM COMMENT "ExactAudioCopy v0.95b3"
PERFORMER "The Choirboys"
TITLE "The Choirboys"
FILE "The.Choirboys.-.[The.Choirboys].专辑.(flac).flac" WAVE
  TRACK 01 AUDIO
    TITLE "Ecce Homo"
    PERFORMER "The Choirboys"
    INDEX 01 00:00:00
    REM DATE 2005
    REM GENRE Alternative
    REM DISCID f80df310
  TRACK 02 AUDIO
    TITLE "Tears In Heaven"
    PERFORMER "The Choirboys"
    INDEX 00 02:00:33
    INDEX 01 02:00:35
    REM DATE 2005
    REM GENRE Alternative
    REM DISCID f80df310
  TRACK 03 AUDIO
    TITLE "Panis Angelicus"
    PERFORMER "The Choirboys"
    INDEX 00 06:06:54
    INDEX 01 06:06:63
    REM DATE 2005
    REM GENRE Alternative
    REM DISCID f80df310
  TRACK 04 AUDIO
    TITLE "Do You Hear What I Hear?"
    PERFORMER "The Choirboys"
    INDEX 00 09:54:25
    INDEX 01 09:54:38
    REM DATE 2005
    REM GENRE Alternative
    REM DISCID f80df310
  TRACK 05 AUDIO
    TITLE "Walking In The Air"
    PERFORMER "The Choirboys"
    INDEX 01 12:47:68
    REM DATE 2005
    REM GENRE Alternative
    REM DISCID f80df310
  TRACK 06 AUDIO
    TITLE "In Paradisum"
    PERFORMER "The Choirboys"
    INDEX 00 16:12:02
    INDEX 01 16:12:22
    REM DATE 2005
    REM GENRE Alternative
    REM DISCID f80df310
  TRACK 07 AUDIO
    TITLE "The Lord Bless You And Keep You"
    PERFORMER "The Choirboys"
    INDEX 00 19:18:49
    INDEX 01 19:18:66
    REM DATE 2005
    REM GENRE Alternative
    REM DISCID f80df310
  TRACK 08 AUDIO
    TITLE "Pie Jesu"
    PERFORMER "The Choirboys"
    INDEX 01 21:58:73
    REM DATE 2005
    REM GENRE Alternative
    REM DISCID f80df310
  TRACK 09 AUDIO
    TITLE "Danny Boy / Carrickfergus"
    PERFORMER "The Choirboys"
    INDEX 00 25:33:51
    INDEX 01 25:33:64
    REM DATE 2005
    REM GENRE Alternative
    REM DISCID f80df310
  TRACK 10 AUDIO
    TITLE "The Lord is My Shepherd"
    PERFORMER "The Choirboys"
    INDEX 01 29:46:26
    REM DATE 2005
    REM GENRE Alternative
    REM DISCID f80df310
  TRACK 11 AUDIO
    TITLE "He Ain't Heavy, He's My Brother"
    PERFORMER "The Choirboys"
    INDEX 01 32:47:41
    REM DATE 2005
    REM GENRE Alternative
    REM DISCID f80df310
  TRACK 12 AUDIO
    TITLE "Corpus Christi Carol"
    PERFORMER "The Choirboys"
    INDEX 01 36:32:17
    REM DATE 2005
    REM GENRE Alternative
    REM DISCID f80df310
  TRACK 13 AUDIO
    TITLE "O for the Wings of a Dove"
    PERFORMER "The Choirboys"
    INDEX 00 39:07:53
    INDEX 01 39:07:58
    REM DATE 2005
    REM GENRE Alternative
    REM DISCID f80df310
  TRACK 14 AUDIO
    TITLE "Agnus Dei"
    PERFORMER "The Choirboys"
    INDEX 01 44:18:38
    REM DATE 2005
    REM GENRE Alternative
    REM DISCID f80df310
  TRACK 15 AUDIO
    TITLE "Let There Be Peace On Earth"
    PERFORMER "The Choirboys"
    INDEX 00 45:44:31
    INDEX 01 45:44:46
    REM DATE 2005
    REM GENRE Alternative
    REM DISCID f80df310
  TRACK 16 AUDIO
    TITLE "Miserere"
    PERFORMER "The Choirboys"
    INDEX 01 47:40:37
    REM DATE 2005
    REM GENRE Alternative
    REM DISCID f80df310


LOG文件:

代码
EAC 抓取日志文件从1. 一月 2006, 15:30 用于 CD
THE CHOIRBOYS / THE CHOIRBOYS

使用驱动器  :SONY    DVD RW DW-Q28A   Adapter: 6  ID: 0
读取模式    :不使用 C2, 使用精确流,不禁用缓存的安全模式
读取偏移校正:0
读取 Lead-In 和 Lead-Out : 否

所用输出模式:内部 WAV 函数
                     44.100 Hz;16 Bit;立体声

其他选项    :
    用静音填充抓取中丢失偏移的采样 : 是
    去除首尾静音块 : 否
    Win NT 及 2000 本地 Win32 接口


范围状态及错误
已选择范围
     文件名 C:\Documents and Settings\臻\My Documents\THE CHOIRBOYS - THE CHOIRBOYS.wav

     峰值电平 100.0 %
     范围质量 100.0 %
     CRC 195D0E16
     复制成功

没有错误发生

状态报告结尾



专辑曲目

01. Ecce Homo (Theme from Mr Bean)
02. Tears in Heaven推荐!
03. Panis Angelicus
04. Do You Hear What I Hear? (featuring Hayley Westenra)
05. Walking in the Air. (Theme from 'The Snowman')
06. In Paradisum
07. The Lord Bless You and Keep You
08. Pie Jesu
09. Danny Boy/Carrickfergus)
10. The Lord is My Shepherd (Psalm 23) - (Theme from the Vicar of Dibley)
11. He's Not Heavy, He's My Brother
12. Corpus Christi Carol (from A Boy was Born)
13. O for the wings of a dove
14. Agnus Dei. (Lamb of God).
15. Let there be Peace on Earth
16. Miserere

正在读取……

这里是其它用户补充的资源(我也要补充):

暂无补充资源
正在加载,请稍等...

点击查看所有13网友评论

 

(?) [公告]留口水、评论相关规则 | [活动]每日签到 轻松领取电驴经验

    小贴士:
  1. 类似“顶”、“沙发”之类没有营养的文字,对勤劳贡献的楼主来说是令人沮丧的反馈信息。
  2. 提问之前请再仔细看一遍楼主的说明,或许是您遗漏了。
  3. 勿催片。请相信驴友们对分享是富有激情的,如果确有更新版本,您一定能搜索到。
  4. 请勿到处挖坑绊人、招贴广告。既占空间让人厌烦,又没人会搭理,于人于己都无利。
  5. 如果您发现自己的评论不见了,请参考以上4条。