v

您的位置:VeryCD音乐古典音乐

音乐资源事务区


乔治.温斯顿(George.Winston) -《十二月》(December)[APE]

  • 状态: 精华资源
  • 摘要:
    发行时间1990年
  • 时间: 2005/12/08 09:26:09 发布 | 2005/12/08 09:26:09 更新
  • 分类: 音乐  古典音乐 

^O^清风

精华资源: 109

全部资源: 117

相关: 分享到新浪微博   转播到腾讯微博   分享到开心网   分享到人人   分享到QQ空间   订阅本资源RSS更新   美味书签  subtitle
该内容尚未提供权利证明,无法提供下载。
专辑英文名December
专辑中文名十二月
资源格式APE
发行时间1990年
地区美国
语言英语
简介

IPB Image


专辑介绍:

  乔治·温斯顿,1949年生于美国密西根州的作曲家兼钢琴家,自1972年录制个人首张专辑演奏专辑《BALLADS & BULES》至今,其柔美优雅极富文人气息的清新曲风,使乔治温斯顿成为先时代音乐界中极具代表性的卓越人物。

  乔治·温斯顿自八十年代出版了特定的主题作品:《秋季》(1980年)、《辞冬》(1982年)、《十二月》(1982年)、《夏季》(1991年)、《森林》(1994年),1995年因卓越的音乐才华而获得了格莱美奖的荣誉。乔治·温斯顿每年巡演110场之多,受到世界各地的热烈欢迎。

  乔治·温斯顿童年在蒙大拿强烈地感受着季节间气候的变化,“我在音乐中所表现的均来自季节的灵感”,他说,“这是我在演奏或听音乐时闭上眼睛都能看到的意境。例如夏威夷松弦吉他使我想起蒙大拿的春季,James Booker的R&B将我带到都市夏天日期蒸发的人行道。我所喜欢的、想念的、演奏的、录制的每一首曲子,对我来说都是季节的声音。

  《December》是他四季四张专辑里的最后一张,也是最闻名的一张。很多人都很喜欢乔治?温斯顿的钢琴演奏风格。《December》这张专辑的音乐更像是钢琴诗,为自然世界的冬日美景谱写的抒情诗。除了令人陶醉的美丽旋律,更使人惊奇的是音乐中在键盘上跳动着的灵感.

转自逸居园:
http://www.yijuy.com/bbs/dispbbs.asp?board...0&page=1
感谢moonyu朋友的发布和支持!

CUE文件:

ps:此APE文件已经加入CUESHEET,可在FOOBAR下不用CUE直接听!

代码
PERFORMER "George Winston"
TITLE "December"
FILE "乔治.温斯顿(George.Winston).-.[十二月(December)].专辑.(ape).ape" WAVE
  TRACK 01 AUDIO
    TITLE "Thanksgiving"
    PERFORMER "George Winston"
    INDEX 01 00:00:00
  TRACK 02 AUDIO
    TITLE "Jesus,Jesus,Rest Your Head"
    PERFORMER "George Winston"
    INDEX 00 04:04:33
    INDEX 01 04:07:08
  TRACK 03 AUDIO
    TITLE "Joy"
    PERFORMER "George Winston"
    INDEX 01 06:44:25
  TRACK 04 AUDIO
    TITLE "Prelude"
    PERFORMER "George Winston"
    INDEX 00 09:57:63
    INDEX 01 10:00:13
  TRACK 05 AUDIO
    TITLE "Carol Of The Bells"
    PERFORMER "George Winston"
    INDEX 01 11:16:30
  TRACK 06 AUDIO
    TITLE "Night,Part One:Snow"
    PERFORMER "George Winston"
    INDEX 00 15:13:58
    INDEX 01 15:16:48
  TRACK 07 AUDIO
    TITLE "Night,Part Two:Midnight"
    PERFORMER "George Winston"
    INDEX 00 17:09:38
    INDEX 01 17:13:18
  TRACK 08 AUDIO
    TITLE "Night,Part Three:Minstrels"
    PERFORMER "George Winston"
    INDEX 01 19:07:25
  TRACK 09 AUDIO
    TITLE "Variations On The Kanon By Johann Pachelbel"
    PERFORMER "George Winston"
    INDEX 00 21:11:30
    INDEX 01 21:24:73
  TRACK 10 AUDIO
    TITLE "The Holly And The Ivy"
    PERFORMER "George Winston"
    INDEX 00 26:45:18
    INDEX 01 26:48:35
  TRACK 11 AUDIO
    TITLE "Some Children See Him"
    PERFORMER "George Winston"
    INDEX 00 31:40:30
    INDEX 01 31:44:25
  TRACK 12 AUDIO
    TITLE "Peace"
    PERFORMER "George Winston"
    INDEX 00 35:30:15
    INDEX 01 35:36:25



专辑曲目

1 Thanksgiving
2 Jesus, Jesus, Rest Your Head
3 Joy
4 Prelude
5 Carol of the Bells
6 Night, Pt. 1 Snow
7 Night, Pt. 2 Midnight
8 Night, Pt. 3 Minstrels
9 Variations on the Canon by Pachelbel
10 The Holly and the Ivy
11 Some Children See Him
12 Peace

正在读取……

这里是其它用户补充的资源(我也要补充):

暂无补充资源
正在加载,请稍等...

点击查看所有39网友评论

 

(?) [公告]留口水、评论相关规则 | [活动]每日签到 轻松领取电驴经验

    小贴士:
  1. 类似“顶”、“沙发”之类没有营养的文字,对勤劳贡献的楼主来说是令人沮丧的反馈信息。
  2. 提问之前请再仔细看一遍楼主的说明,或许是您遗漏了。
  3. 勿催片。请相信驴友们对分享是富有激情的,如果确有更新版本,您一定能搜索到。
  4. 请勿到处挖坑绊人、招贴广告。既占空间让人厌烦,又没人会搭理,于人于己都无利。
  5. 如果您发现自己的评论不见了,请参考以上4条。