v

您的位置:VeryCD音乐古典音乐

音乐资源事务区


吴金黛 & 徐清原 -《风潮唱片.当代音乐馆.听见大自然系列.森林狂想曲》SACD超级发烧天碟[APE]

  • 状态: 精华资源
  • 摘要:
    发行时间2003年
  • 时间: 2005/12/07 14:39:00 发布 | 2005/12/07 14:39:00 更新
  • 分类: 音乐  古典音乐 

^O^清风

精华资源: 109

全部资源: 117

相关: 分享到新浪微博   转播到腾讯微博   分享到开心网   分享到人人   分享到QQ空间   订阅本资源RSS更新   美味书签  subtitle
该内容尚未提供权利证明,无法提供下载。
专辑中文名风潮唱片.当代音乐馆.听见大自然系列.森林狂想曲
艺术家吴金黛
徐清原
资源格式APE
版本SACD超级发烧天碟
发行时间2003年
地区台湾
语言普通话
简介

IPB Image


专辑介绍:

第一张自然音乐超级CD
360度声音动态 超立体环绕音场
100%身临其境的自然环境感官享受
近百种真实自然声音.最佳环境音响测试片
顶级品味 行家收藏

[music]http://www.yijuy.com/bbs/UploadFile/2005-11/2005112814838659.mid[/music]

《森林狂想曲》、《我的海洋》系列专辑唯一超值精选
13首最受欢迎知名乐曲+2首纯净自然声音
左耳听山.右耳听海.音乐给我自然的生活
● 法国坎城唱片大展最受欢迎音乐专辑
● 美国电台点播率最高、最受媒体喜爱的环境音声
● 唯一突破年龄、职业、性别、族群、地域限制的国际级自然专辑
● 史上最耗费心力与体力的音乐製作案,六位知名自然录音师七年间行遍山林,完全不失真的精彩鉅献
● 近百种鸟、蛙、蝉、虫、哺乳类、溪流、海洋等日夜间自然物种真实鸣声,一次听个够
● 金曲奖最佳唱片製作人吴金黛、亚太影展最佳音乐奖范宗沛、中国首位入围范.克莱本钢琴大赛林海、金曲奖最佳演奏音乐奖董运昌、德国着名音乐家彭靖...100%全新创作,黄金阵容精心打造
● 兼具音乐欣赏、实用教学多种功能,送礼自用两相宜

转自yijuy的:
http://www.yijuy.com/bbs/dispbbs.asp?board...0&page=1
非常感谢xiaoheng发布和支持! laugh.gif

CUE文件:

ps:此APE文件已经加入CUESHEET,可在FOOBAR下不用CUE直接听!

代码
PERFORMER "吴金黛、徐清原"
TITLE "风潮自然狂想曲SACD"
FILE "风潮唱片.-.[当代音乐馆.听见大自然系列.森林狂想曲].专辑.(ape).ape" WAVE
TRACK 01 AUDIO
TITLE "森林狂想曲"
PERFORMER "吴金黛、徐清原"
INDEX 00 00:00:00
INDEX 01 00:00:01
TRACK 02 AUDIO
TITLE "野鸟情歌"
PERFORMER "吴金黛、徐清原"
INDEX 01 04:41:43
TRACK 03 AUDIO
TITLE "雾"
PERFORMER "吴金黛、徐清原"
INDEX 01 10:28:17
TRACK 04 AUDIO
TITLE "牧神的夜宴"
PERFORMER "吴金黛、徐清原"
INDEX 01 15:51:41
TRACK 05 AUDIO
TITLE "春天的歌 "
PERFORMER "吴金黛、徐清原"
INDEX 01 20:12:45
TRACK 06 AUDIO
TITLE "我的海洋"
PERFORMER "吴金黛、徐清原"
INDEX 01 23:02:24
TRACK 07 AUDIO
TITLE "半岛随想"
PERFORMER "吴金黛、徐清原"
INDEX 01 28:20:41
TRACK 08 AUDIO
TITLE "雾中天池"
PERFORMER "吴金黛、徐清原"
INDEX 01 32:31:10
TRACK 09 AUDIO
TITLE "野性的呼唤"
PERFORMER "吴金黛、徐清原"
INDEX 01 39:06:02
TRACK 10 AUDIO
TITLE "向晚"
PERFORMER "吴金黛、徐清原"
INDEX 01 42:36:30
TRACK 11 AUDIO
TITLE "夜的精灵"
PERFORMER "吴金黛、徐清原"
INDEX 01 47:05:32
TRACK 12 AUDIO
TITLE "蛙蛙快乐颂"
PERFORMER "吴金黛、徐清原"
INDEX 01 50:07:42
TRACK 13 AUDIO
TITLE "梦"
PERFORMER "吴金黛、徐清原"
INDEX 01 53:52:21
TRACK 14 AUDIO
TITLE "晨鸟之歌"
PERFORMER "吴金黛、徐清原"
INDEX 01 61:22:67
TRACK 15 AUDIO
TITLE "银色山岗"
PERFORMER "吴金黛、徐清原"
INDEX 01 64:02:05



专辑曲目

1 森林狂想曲 (选自「森林狂想曲」专辑)
2 野鸟情歌 (选自「森林狂想曲」专辑)
3 雾 (选自「最近的天堂」专辑)
4 牧神的夜宴 (选自「最近的天堂」专辑)
5 春天的歌 (选自「青蛙四季唱游」专辑)
6 我的海洋 (选自「我的海洋」专辑)
7 半岛随想 (选自「我的海洋」专辑)
8 雾中天池 (选自「飞鱼乐园」专辑)
9 野性的呼唤 (选自「最近的天堂」专辑)10 向晚 (选自「夜的精灵」专辑)
11 夜的精灵 (选自「夜的精灵」专辑)
12 蛙蛙快乐颂 (选自「夜的精灵」专辑)
13 梦 (选自「夜的精灵」专辑)
14 晨鸟之歌 (纯自然声音) (选自「森林狂想曲」专辑)
15 银色山岗 (纯自然声音) (选自「夜的精灵」专辑)

正在读取……

这里是其它用户补充的资源(我也要补充):

暂无补充资源
正在加载,请稍等...

点击查看所有70网友评论

 

(?) [公告]留口水、评论相关规则 | [活动]每日签到 轻松领取电驴经验

    小贴士:
  1. 类似“顶”、“沙发”之类没有营养的文字,对勤劳贡献的楼主来说是令人沮丧的反馈信息。
  2. 提问之前请再仔细看一遍楼主的说明,或许是您遗漏了。
  3. 勿催片。请相信驴友们对分享是富有激情的,如果确有更新版本,您一定能搜索到。
  4. 请勿到处挖坑绊人、招贴广告。既占空间让人厌烦,又没人会搭理,于人于己都无利。
  5. 如果您发现自己的评论不见了,请参考以上4条。