v

您的位置:VeryCD音乐古典音乐

音乐资源事务区


群星(Various) -《飞利浦-专业试音碟》(Hifi Heart Music)VBR320K/ape[MP3!]

  • 状态: 精华资源
  • 摘要:
    发行时间2004年
  • 时间: 2005/12/05 10:53:02 发布 | 2005/12/05 10:53:02 更新
  • 分类: 音乐  古典音乐 

梦里他乡

精华资源: 28

全部资源: 29

相关: 分享到新浪微博   转播到腾讯微博   分享到开心网   分享到人人   分享到QQ空间   订阅本资源RSS更新   美味书签  subtitle
该内容尚未提供权利证明,无法提供下载。
专辑英文名Hifi Heart Music
专辑中文名飞利浦-专业试音碟
艺术家群星(Various)
资源格式MP3
版本VBR320K/ape
发行时间2004年
简介

IPB Image


专辑介绍:

在选曲和录音方面堪称一绝,确实还找不出在音响效果方面可与这张唱片效果媲美的录音,虽然录制水准与顶尖的发烧录音还有一定的差距,但整体平衡感已经足够令人满意。

附:满足不同人的需要。把APE也发上来吧。个人选择下载。

APE文件的CUE需更新。如下:

代码
PERFORMER "Various"
TITLE "Hifi Heart Music"
FILE "CDImage.ape" WAVE
  TRACK 01 AUDIO
    TITLE "Freedom"
    PERFORMER "Various"
    INDEX 01 00:00:00
    REM GENRE Folk
    REM DISCID f5104411
  TRACK 02 AUDIO
    TITLE "Waves"
    PERFORMER "Various"
    INDEX 01 04:45:59
    REM GENRE Folk
    REM DISCID f5104411
  TRACK 03 AUDIO
    TITLE "My Heart will go on"
    PERFORMER "Various"
    INDEX 01 09:43:69
    REM GENRE Folk
    REM DISCID f5104411
  TRACK 04 AUDIO
    TITLE "Way down deep"
    PERFORMER "Various"
    INDEX 01 15:08:68
    REM GENRE Folk
    REM DISCID f5104411
  TRACK 05 AUDIO
    TITLE "Lowisiana"
    PERFORMER "Various"
    INDEX 01 20:56:05
    REM GENRE Folk
    REM DISCID f5104411
  TRACK 06 AUDIO
    TITLE "Hotel California"
    PERFORMER "Various"
    INDEX 01 24:03:54
    REM GENRE Folk
    REM DISCID f5104411
  TRACK 07 AUDIO
    TITLE "Ave maria"
    PERFORMER "Various"
    INDEX 01 31:17:59
    REM GENRE Folk
    REM DISCID f5104411
  TRACK 08 AUDIO
    TITLE "Song of joy"
    PERFORMER "Various"
    INDEX 01 36:00:58
    REM GENRE Folk
    REM DISCID f5104411
  TRACK 09 AUDIO
    TITLE "Salling"
    PERFORMER "Various"
    INDEX 01 39:13:43
    REM GENRE Folk
    REM DISCID f5104411
  TRACK 10 AUDIO
    TITLE "Nabncco"
    PERFORMER "Various"
    INDEX 01 42:56:30
    REM GENRE Folk
    REM DISCID f5104411
  TRACK 11 AUDIO
    TITLE "Carman"
    PERFORMER "Various"
    INDEX 01 46:01:37
    REM GENRE Folk
    REM DISCID f5104411
  TRACK 12 AUDIO
    TITLE "Thowe were the days"
    PERFORMER "Various"
    INDEX 01 50:22:04
    REM GENRE Folk
    REM DISCID f5104411
  TRACK 13 AUDIO
    TITLE "Responsorial singing by the yellow river"
    PERFORMER "Various"
    INDEX 01 53:09:19
    REM GENRE Folk
    REM DISCID f5104411
  TRACK 14 AUDIO
    TITLE "Jasmine"
    PERFORMER "Various"
    INDEX 01 56:04:08
    REM GENRE Folk
    REM DISCID f5104411
  TRACK 15 AUDIO
    TITLE "Poem of tang dynastic"
    PERFORMER "Various"
    INDEX 01 60:57:60
    REM GENRE Folk
    REM DISCID f5104411
  TRACK 16 AUDIO
    TITLE "Barbie girl"
    PERFORMER "Various"
    INDEX 01 61:46:67
    REM GENRE Folk
    REM DISCID f5104411
  TRACK 17 AUDIO
    TITLE "Sha La La"
    PERFORMER "Various"
    INDEX 01 65:06:64
    REM GENRE Folk
    REM DISCID f5104411



专辑曲目

01.Freedom 自由 女人声吟唱 [4:45]
02.Waves 海浪 女人声吟唱 [4:58]
03.My Heart will go on 我心依旧 女人声吟唱 [5:24]
04.Way down deep 走向深渊 女人声吟唱 [5:47]
05.Lowisiana 路易斯安娜 男人声深情演唱 [3:07]
06.Hotel california 加州旅馆 男子乐队深情演唱 [7:14]
07.Ave maria 圣母颂 男人声深情演唱 [4:42]
08.Song of joy 欢乐颂 童声合唱 [3:12]
09.Salling 航行 童声领唱合唱 [3:42]
10.Nabncco 那可 歌剧选段 [3:05]
11.Carman 卡门选曲 歌剧选段 [4:20]
12.Thowe were the days 被遗忘的时光 经典女声国语名曲 [2:47]
13.Responsorial singing by the yellow river 黄河大合唱选段 河边对唱 [2:54]
14.Jasmine 茉莉花 无伴奏合唱 [4:53]
15.Poem of tang dynastic 唐诗朗诵 [0:49]
16.Barbie girl 芭芘女孩 [3:19]
17.Sha La La 莎啦啦 [4:10]


本专辑已加入mp3共享计划

正在读取……

这里是其它用户补充的资源(我也要补充):

暂无补充资源
正在加载,请稍等...

点击查看所有82网友评论

 

(?) [公告]留口水、评论相关规则 | [活动]每日签到 轻松领取电驴经验

    小贴士:
  1. 类似“顶”、“沙发”之类没有营养的文字,对勤劳贡献的楼主来说是令人沮丧的反馈信息。
  2. 提问之前请再仔细看一遍楼主的说明,或许是您遗漏了。
  3. 勿催片。请相信驴友们对分享是富有激情的,如果确有更新版本,您一定能搜索到。
  4. 请勿到处挖坑绊人、招贴广告。既占空间让人厌烦,又没人会搭理,于人于己都无利。
  5. 如果您发现自己的评论不见了,请参考以上4条。