v

您的位置:VeryCD音乐古典音乐

音乐资源事务区


V.A -《触摸美丽》(Touching.Beauty)[APE]

  • 状态: 精华资源
  • 摘要:
    发行时间2000年
  • 时间: 2005/12/04 11:32:41 发布 | 2005/12/04 11:32:41 更新
  • 分类: 音乐  古典音乐 

^O^清风

精华资源: 109

全部资源: 117

相关: 分享到新浪微博   转播到腾讯微博   分享到开心网   分享到人人   分享到QQ空间   订阅本资源RSS更新   美味书签  subtitle
该内容尚未提供权利证明,无法提供下载。
专辑英文名Touching.Beauty
专辑中文名触摸美丽
艺术家V.A
资源格式APE
发行时间2000年
地区美国
语言英语
简介

IPB Image


专辑介绍:

  当第一束晨光穿过浓密树林,洒落薄雾轻凝的湖面时,柔和的光影幻化成跳耀的音符,于是,落脚湖畔史提夫。米德顿用手中的吉他,点染出与大自然间的生命律动,带您进入一个大自然与器桨交织出的无限世界...

  自然对于我们而言,是如此的重要,纯净的,不带雕琢痕迹的景色,一花,一水,一山,一云,融合在一起,可以给我们所激动万分的渴求和满足!听这里,简单的吉他的轻奏揉和入自然的画面,给恬静的氛围添加一丝的诠释和画笔!

  我们感觉到了美丽,我们呼吸到了美丽,纯真的美丽,让我们心动不已,让我们激动万分。他是从我们内心深处迸发出来,以至于如此的猛烈,美丽的人生,纯洁的友谊,恬美的自然,每一样美好的东西,我们都希望与朋友们一起分享,那就是朋友的美丽,大家的享受。让我们呼吸纯真,让我们分享共鸣产生的快乐! Touching Beauty,由Michel Rubini, Troika, Huw Warren, Bernard L\'hoir, Hiko, Back to Earth......一班新纪元音乐创作大师悉心制作,本碟共收入了13首抚慰您心灵之美妙作品,乐曲的旋律内容大都是属于一些意境优美和酣畅的作品。
[music]http://music.qingyinyue.com/real/realwma/beauty01.wma[/music]

转载自yijuy的:
http://www.yijuy.com/bbs/dispbbs.asp?board...0&page=1
非常感谢一根头发中分MM的发布和支持!

推荐曲目:

1. Little Moritz by Bernward Koch3:03
这首曲子便是最适合与爱人共享,因起旋律优美,钢琴谈奏更是晶莹剔透甜润细致。

2. Song for Sarah by Michael Hoppé3:03
乐曲开头的木吉他清晰无比,而且弦乐轻柔滑溜的在后方拉奏,轻易的形成一个宽阔之音场空间,不但如此其调子更是令人舒适酣畅沐浴在音乐之中忘却自我。

3. Through the Arbor by Kevin Kern3:45
这曲可以说是我的最爱,当第一次聆听这首曲子时,便有如着了魔般放下手头的事,一遍又一遍的去聆听,不知不觉已重复听了十多遍了!不信?请您自己去领略吧!

7. K'un (Earth) by Frank Steiner, Jr.3:56
开头的大琴拉奏极具质感,而电子合成器所营造出来的空洞风声与鸟声交织出一副动人的音乐画面。

11. Unspoken Words by Hiko2:58
相信是整张专辑最令人感觉忧伤的乐曲,皆因本曲调子除忧郁伤感外,钢琴弹奏的每一个音符都带着凄凉的意境。


CUE文件:

ps:此APE文件已经加入CUESHEET,可在FOOBAR下不用CUE直接听!

代码
PERFORMER "Various Artists"
TITLE "Touching Beauty for Banyan Tree"
FILE "V.A.-.[触摸美丽(Touching.Beauty)].专辑.(ape).ape" WAVE
  TRACK 01 AUDIO
    TITLE "Little Moritz"
    PERFORMER "Little Moritz"
    FLAGS DCP
    INDEX 01 00:00:00
  TRACK 02 AUDIO
    TITLE "Song For Sarah"
    PERFORMER "Song For Sarah"
    FLAGS DCP
    INDEX 00 03:03:72
    INDEX 01 03:05:72
  TRACK 03 AUDIO
    TITLE "Through The Arbor"
    PERFORMER "Through The Arbor"
    FLAGS DCP
    INDEX 00 06:11:10
    INDEX 01 06:13:10
  TRACK 04 AUDIO
    TITLE "Secret Dreams I"
    PERFORMER "Secret Dreams I"
    FLAGS DCP
    INDEX 00 09:58:37
    INDEX 01 10:00:37
  TRACK 05 AUDIO
    TITLE "Kuan Yin"
    PERFORMER "Kuan Yin"
    FLAGS DCP
    INDEX 00 13:19:55
    INDEX 01 13:21:55
  TRACK 06 AUDIO
    TITLE "Morea Bychan"
    PERFORMER "Morea Bychan"
    FLAGS DCP
    INDEX 00 18:44:68
    INDEX 01 18:46:68
  TRACK 07 AUDIO
    TITLE "K'un (Earth)"
    PERFORMER "K'un (Earth)"
    FLAGS DCP
    INDEX 00 23:08:69
    INDEX 01 23:10:69
  TRACK 08 AUDIO
    TITLE "Summer Of 300 Years"
    PERFORMER "Summer Of 300 Years"
    FLAGS DCP
    INDEX 00 27:08:45
    INDEX 01 27:10:45
  TRACK 09 AUDIO
    TITLE "Before Night Falls"
    PERFORMER "Before Night Falls"
    FLAGS DCP
    INDEX 00 32:33:49
    INDEX 01 32:35:49
  TRACK 10 AUDIO
    TITLE "Long Way"
    PERFORMER "Long Way"
    FLAGS DCP
    INDEX 00 36:14:62
    INDEX 01 36:16:62
  TRACK 11 AUDIO
    TITLE "Unspoken Words"
    PERFORMER "Unspoken Words"
    FLAGS DCP
    INDEX 00 40:28:23
    INDEX 01 40:30:23
  TRACK 12 AUDIO
    TITLE "Seventh Ray"
    PERFORMER "Seventh Ray"
    FLAGS DCP
    INDEX 00 43:30:07
    INDEX 01 43:32:07
  TRACK 13 AUDIO
    TITLE "...White Shadow"
    PERFORMER "...White Shadow"
    FLAGS DCP
    INDEX 00 48:20:66
    INDEX 01 48:22:66



专辑曲目

01-Little Moritz
02-Song for Sarah
03-Through the Arbor
04-Secret Dreams I
05-Kuan Yin
06-Morfa Bychan
07-K'un (Earth)
08-Summer of 300 Years
09-Before the Night Falls
10-Long Wayh
11-Unspoken Words
12-Seventh Ray
13-White Shadow

正在读取……

这里是其它用户补充的资源(我也要补充):

暂无补充资源
正在加载,请稍等...

点击查看所有15网友评论

 

(?) [公告]留口水、评论相关规则 | [活动]每日签到 轻松领取电驴经验

    小贴士:
  1. 类似“顶”、“沙发”之类没有营养的文字,对勤劳贡献的楼主来说是令人沮丧的反馈信息。
  2. 提问之前请再仔细看一遍楼主的说明,或许是您遗漏了。
  3. 勿催片。请相信驴友们对分享是富有激情的,如果确有更新版本,您一定能搜索到。
  4. 请勿到处挖坑绊人、招贴广告。既占空间让人厌烦,又没人会搭理,于人于己都无利。
  5. 如果您发现自己的评论不见了,请参考以上4条。