v

您的位置:VeryCD音乐古典音乐

音乐资源事务区


王俊雄 -《大自然音乐系列.轻风细雨》[APE]

  • 状态: 精华资源
  • 摘要:
  • 时间: 2005/12/01 08:52:07 发布 | 2005/12/01 08:52:07 更新
  • 分类: 音乐  古典音乐 

^O^清风

精华资源: 109

全部资源: 117

相关: 分享到新浪微博   转播到腾讯微博   分享到开心网   分享到人人   分享到QQ空间   订阅本资源RSS更新   美味书签  subtitle
该内容尚未提供权利证明,无法提供下载。
专辑中文名大自然音乐系列.轻风细雨
艺术家王俊雄
资源格式APE
简介

IPB Image


专辑介绍:

一张可使燥热瞬间降温、心情变得平静的专辑,
是音乐献给大自然最贴切的礼物!

晶脆清亮的音符纷纷坠下,彷佛褥夏从天而降的细雨,
丝丝凉意销融心间的烦闷难耐…;
轻柔婉约的旋律缓缓流泄,穿过发丝、飘过耳际,
如夏夜微风轻拂般的舒适惬意,令人微醉…

[music]http://www.yijuy.com/bbs/UploadFile/2005-11/20051122215226.mid[/music]

转自逸居园:http://www.yijuy.com/bbs/dispbbs.asp?boardID=24&ID=14476&page=1
非常感谢Indego小姐的分享!


CUE文件:

ps:此APE文件已经加入CUESHEET,可在FOOBAR下不用CUE直接听!

代码
PERFORMER "王俊雄"
TITLE "轻风细雨"
FILE "王俊雄.-.[大自然音乐系列.轻风细雨].专辑.(ape).ape" WAVE
  TRACK 01 AUDIO
    TITLE "不睡"
    INDEX 01 00:00:00
  TRACK 02 AUDIO
    TITLE "轻声细语"
    INDEX 01 05:21:52
  TRACK 03 AUDIO
    TITLE "风言风语"
    INDEX 01 09:32:03
  TRACK 04 AUDIO
    TITLE "雨打芭蕉"
    INDEX 01 14:45:40
  TRACK 05 AUDIO
    TITLE "雨里的泪水"
    INDEX 01 19:02:42
  TRACK 06 AUDIO
    TITLE "春风微雨的绿精灵"
    INDEX 01 22:56:01
  TRACK 07 AUDIO
    TITLE "相思花雨"
    INDEX 01 26:37:00
  TRACK 08 AUDIO
    TITLE "片云弄清天"
    INDEX 01 30:44:29
  TRACK 09 AUDIO
    TITLE "窗风的话"
    INDEX 01 35:31:43
  TRACK 10 AUDIO
    TITLE "风的呼吸"
    INDEX 01 41:06:37
  TRACK 11 AUDIO
    TITLE "黑夜的眼泪"
    INDEX 01 45:58:04
  TRACK 12 AUDIO
    TITLE "风儿!请捎个信"
    INDEX 01 51:33:05



专辑曲目

01.不睡
02.轻声细语[推荐]
03.风言风语
04.雨打芭蕉[推荐]
05.雨里的泪水
06.春风微雨的绿精灵
07.相思花雨
08.片云弄清天
09.窗风的话
10.风的呼吸
11.黑夜的眼泪
12.风儿!请捎个信

正在读取……

这里是其它用户补充的资源(我也要补充):

暂无补充资源
正在加载,请稍等...

点击查看所有47网友评论

 

(?) [公告]留口水、评论相关规则 | [活动]每日签到 轻松领取电驴经验

    小贴士:
  1. 类似“顶”、“沙发”之类没有营养的文字,对勤劳贡献的楼主来说是令人沮丧的反馈信息。
  2. 提问之前请再仔细看一遍楼主的说明,或许是您遗漏了。
  3. 勿催片。请相信驴友们对分享是富有激情的,如果确有更新版本,您一定能搜索到。
  4. 请勿到处挖坑绊人、招贴广告。既占空间让人厌烦,又没人会搭理,于人于己都无利。
  5. 如果您发现自己的评论不见了,请参考以上4条。