v

您的位置:VeryCD音乐古典音乐

音乐资源事务区


丹.吉布森(Dan.Gibson) -《丹.吉布森.精选集II》(Solitudes: Favorite Sellections - Exploring Nature with MusicII)[APE]

  • 状态: 精华资源
  • 摘要:
    发行时间1996年
  • 时间: 2005/11/30 16:56:27 发布 | 2005/11/30 16:56:27 更新
  • 分类: 音乐  古典音乐 

^O^清风

精华资源: 109

全部资源: 117

相关: 分享到新浪微博   转播到腾讯微博   分享到开心网   分享到人人   分享到QQ空间   订阅本资源RSS更新   美味书签  subtitle
该内容尚未提供权利证明,无法提供下载。
专辑英文名Solitudes: Favorite Sellections - Exploring Nature with MusicII
专辑中文名丹.吉布森.精选集II
资源格式APE
发行时间1996年
地区加拿大
语言英语
简介

IPB Image


专辑介绍:

  继第一集心水精选后,这张相信是丹吉逊最爱的精选,因为所有他于顶极大自然录音系列中最爱的曲目都可以在这张精选中找到,从十一张专集中选曲,丹吉逊奇妙地以大自然声效配上古典作品,表现特别而变化多端的古典气派。

本专辑转载自逸居园:http://www.yijuy.com/bbs/dispbbs.asp?boardID=24&ID=15345&page=1
感谢mwm318朋友的发布!
第一辑下载:http://bbs.VeryCD.com/topics/255679/
再次感谢万里行的发布!


CUE文件:

ps:此APE文件已经加入CUESHEET,可在FOOBAR下不用CUE直接听!

代码
PERFORMER "Dan Gibson’s"
TITLE "Favorite Selections II"
FILE "丹.吉布森(Dan.Gibson).-.[Solitudes.Favorite.Sellections.-.Exploring.Nature.with.Music(精选集II)].专辑.(ape).ape" WAVE
  TRACK 01 AUDIO
    TITLE "Arrival Of Spring"
    PERFORMER "Dan Gibson’s"
    FLAGS DCP
    INDEX 01 00:00:00
  TRACK 02 AUDIO
    TITLE "Giselle"
    PERFORMER "Dan Gibson’s"
    FLAGS DCP
    INDEX 00 05:45:47
    INDEX 01 05:47:47
  TRACK 03 AUDIO
    TITLE "Morning In Saguaro Valley"
    PERFORMER "Dan Gibson’s"
    FLAGS DCP
    INDEX 00 10:36:67
    INDEX 01 10:38:67
  TRACK 04 AUDIO
    TITLE "The Welcome"
    PERFORMER "Dan Gibson’s"
    FLAGS DCP
    INDEX 00 17:05:20
    INDEX 01 17:07:20
  TRACK 05 AUDIO
    TITLE "Huron Cattle"
    PERFORMER "Dan Gibson’s"
    FLAGS DCP
    INDEX 00 22:57:12
    INDEX 01 22:59:12
  TRACK 06 AUDIO
    TITLE "Morning Song"
    PERFORMER "Dan Gibson’s"
    FLAGS DCP
    INDEX 00 25:11:40
    INDEX 01 25:13:40
  TRACK 07 AUDIO
    TITLE "In To The Sky"
    PERFORMER "Dan Gibson’s"
    FLAGS DCP
    INDEX 00 31:41:72
    INDEX 01 31:43:72
  TRACK 08 AUDIO
    TITLE "Laguna Pastoria"
    PERFORMER "Dan Gibson’s"
    FLAGS DCP
    INDEX 00 38:10:57
    INDEX 01 38:12:57
  TRACK 09 AUDIO
    TITLE "Roses From The South"
    PERFORMER "Dan Gibson’s"
    FLAGS DCP
    INDEX 00 43:01:42
    INDEX 01 43:03:42
  TRACK 10 AUDIO
    TITLE "Summers Eve On A Mountain Lake"
    PERFORMER "Dan Gibson’s"
    FLAGS DCP
    INDEX 00 51:04:00
    INDEX 01 51:06:00
  TRACK 11 AUDIO
    TITLE "The Beckoning "
    PERFORMER "Dan Gibson’s"
    FLAGS DCP
    INDEX 00 55:41:52
    INDEX 01 55:43:52



专辑曲目

01.Arrival of Spring
02.Giselle
03.Morning in Saguaro valley
04.The Welcome
05.Huron Cattle
06.Morning Song
07.In to the Sky
08.Laguna Pastoria
09.Roses from the South
10.Summers Eve on a Mountain Lake
11.The Beckoning

正在读取……

这里是其它用户补充的资源(我也要补充):

暂无补充资源
正在加载,请稍等...

点击查看所有49网友评论

 

(?) [公告]留口水、评论相关规则 | [活动]每日签到 轻松领取电驴经验

    小贴士:
  1. 类似“顶”、“沙发”之类没有营养的文字,对勤劳贡献的楼主来说是令人沮丧的反馈信息。
  2. 提问之前请再仔细看一遍楼主的说明,或许是您遗漏了。
  3. 勿催片。请相信驴友们对分享是富有激情的,如果确有更新版本,您一定能搜索到。
  4. 请勿到处挖坑绊人、招贴广告。既占空间让人厌烦,又没人会搭理,于人于己都无利。
  5. 如果您发现自己的评论不见了,请参考以上4条。