v

您的位置:VeryCD音乐古典音乐

音乐资源事务区


V.A -《恋人浪漫曲.第六辑》(Lover's.Romance.VOL.6)[APE]

  • 状态: 精华资源
  • 摘要:
    发行时间1985年
  • 时间: 2005/11/30 09:17:35 发布 | 2005/11/30 09:17:35 更新
  • 分类: 音乐  古典音乐 

^O^清风

精华资源: 109

全部资源: 117

相关: 分享到新浪微博   转播到腾讯微博   分享到开心网   分享到人人   分享到QQ空间   订阅本资源RSS更新   美味书签  subtitle
该内容尚未提供权利证明,无法提供下载。
专辑英文名Lover's.Romance.VOL.6
专辑中文名恋人浪漫曲.第六辑
艺术家V.A
资源格式APE
发行时间1985年
地区香港
简介

IPB Image


专辑介绍:

  Denver Music于80年代推出的浪漫轻音乐,许多曲目改编自优秀的欧美金曲,由于旋律极其优美,配器丰富而轻松,多样的演奏手法和技巧,充满了一种浪漫的情调,在八几年刚听到时,感觉就象一股清新的风扑面而来,令人耳目一新,在同类轻音乐作品中,这套可算是最正宗,最经典,是最好听的啦!该套碟由Sony Inc/Moonrise Records Co.录音,音色华丽而纯朴,效果极佳!绝对值得藏。

  这套音乐应该是八十年代中期开始在大陆广泛流行。共13集,由香港月升唱片公司(其实是CBS/SONY唱片公司的分支公司)1983年至1990年陆续出品。这是一套非常优秀的轻音乐,演奏风格纤细独特,选曲精良。单从封面设计来看,就足以让人爱不释手。尤其前六集,比后六集更为优秀。八十年代中期,恋人浪漫曲在大陆的磁带销量取得了非常好的成绩。当时CD卖到90元一张,而一套含六盒磁带的大礼盒才不过48元(后来涨到72元),CD价格令当时一般音乐爱好者望而却步。但CD到93年左右降到了60元。除了第九集封面设计和曲目梢弱一点外,其余都算上乘。

  其实,90年代初曾拥有Denver Music出的其它几盘精选磁带,当时真的是非常喜欢。后来便四处寻找这套CD,96年曾在北京西单路口的音像店见过,但那是只有几盘,也不全。再后来就一直没见过,从此这套CD就成了我心中一直未了的心愿。
ps:此介绍转自ESONG~

"To be loved is to know
happiness
and contentment...
To give love is to know
the joy of sharing oneself...
It is through the mirale of love
that we discover
the fullness of life."

感谢IMG的bg4rgl和五哥放牛两位朋友的发布~

CUE文件:

ps:此APE文件已经加入CUESHEET,可在FOOBAR下不用CUE直接听!

代码
PERFORMER "Various artists"
TITLE "Lover's Romance Vol. 6"
FILE "V.A.-.[恋人浪漫曲.第六辑(Lover's.Romance.VOL.6)].专辑.(ape).ape" WAVE
TRACK 01 AUDIO
TITLE "Endless Love"
PERFORMER "Various artists"
INDEX 01 00:00:00
REM GENRE misc
REM VARIOUS 1
REM DISCID ab0b750c
TRACK 02 AUDIO
TITLE "Yesterday"
PERFORMER "Various artists"
INDEX 00 04:51:00
INDEX 01 04:53:25
REM GENRE misc
REM VARIOUS 1
REM DISCID ab0b750c
TRACK 03 AUDIO
TITLE "Romance Of The Love Themes-Interlude/The Way We Were/Love Story"
PERFORMER "Various artists"
INDEX 00 08:28:12
INDEX 01 08:30:00
REM GENRE misc
REM VARIOUS 1
REM DISCID ab0b750c
TRACK 04 AUDIO
TITLE "Pretty Ribbon"
PERFORMER "Various artists"
INDEX 00 15:08:12
INDEX 01 15:10:12
REM GENRE misc
REM VARIOUS 1
REM DISCID ab0b750c
TRACK 05 AUDIO
TITLE "Love Me Tender"
PERFORMER "Various artists"
INDEX 00 18:12:15
INDEX 01 18:14:50
REM GENRE misc
REM VARIOUS 1
REM DISCID ab0b750c
TRACK 06 AUDIO
TITLE "Pathetique"
PERFORMER "Various artists"
INDEX 00 21:15:50
INDEX 01 21:17:40
REM GENRE misc
REM VARIOUS 1
REM DISCID ab0b750c
TRACK 07 AUDIO
TITLE "Everytime You Go Away"
PERFORMER "Various artists"
INDEX 00 24:27:40
INDEX 01 24:30:50
REM GENRE misc
REM VARIOUS 1
REM DISCID ab0b750c
TRACK 08 AUDIO
TITLE "As Time Goes By"
PERFORMER "Various artists"
INDEX 00 29:11:12
INDEX 01 29:13:37
REM GENRE misc
REM VARIOUS 1
REM DISCID ab0b750c
TRACK 09 AUDIO
TITLE "Beyond The Reef"
PERFORMER "Various artists"
INDEX 00 32:51:25
INDEX 01 32:53:50
REM GENRE misc
REM VARIOUS 1
REM DISCID ab0b750c
TRACK 10 AUDIO
TITLE "Sailing"
PERFORMER "Various artists"
INDEX 00 36:16:25
INDEX 01 36:18:02
REM GENRE misc
REM VARIOUS 1
REM DISCID ab0b750c
TRACK 11 AUDIO
TITLE "Parlez-Mai D'Amour"
PERFORMER "Various artists"
INDEX 00 41:00:25
INDEX 01 41:02:65
REM GENRE misc
REM VARIOUS 1
REM DISCID ab0b750c
TRACK 12 AUDIO
TITLE "Sayonara"
PERFORMER "Various artists"
INDEX 00 44:37:25
INDEX 01 44:39:50
REM GENRE misc
REM VARIOUS 1
REM DISCID ab0b750c



专辑曲目

01 Endless Love
02 Yesterday
03 Interlude - The Way We Were - Love Story
04 Pretty Ribbon
05 Love Me Tender
06 Pathetique
07 Everytime You Go Away
08 As Time Goes By
09 Beyond The Reef
10 Sailing
11 Parlez-Moi D Amour
12 Sayonara

正在读取……

这里是其它用户补充的资源(我也要补充):

暂无补充资源
正在加载,请稍等...

点击查看所有8网友评论

 

(?) [公告]留口水、评论相关规则 | [活动]每日签到 轻松领取电驴经验

    小贴士:
  1. 类似“顶”、“沙发”之类没有营养的文字,对勤劳贡献的楼主来说是令人沮丧的反馈信息。
  2. 提问之前请再仔细看一遍楼主的说明,或许是您遗漏了。
  3. 勿催片。请相信驴友们对分享是富有激情的,如果确有更新版本,您一定能搜索到。
  4. 请勿到处挖坑绊人、招贴广告。既占空间让人厌烦,又没人会搭理,于人于己都无利。
  5. 如果您发现自己的评论不见了,请参考以上4条。