v

您的位置:VeryCD音乐欧美音乐

音乐资源事务区


Vitas -《魔鬼声音》(Tancevalniy Marafon)[APE]

  • 状态: 精华资源
  • 摘要:
    发行时间2002年
    地区俄罗斯
    语言俄语
  • 时间: 2005/11/26 11:25:07 发布 | 2005/11/26 11:25:07 更新
  • 分类: 音乐  欧美音乐 

包龙图

精华资源: 297

全部资源: 300

相关: 分享到新浪微博   转播到腾讯微博   分享到开心网   分享到人人   分享到QQ空间   订阅本资源RSS更新   美味书签  subtitle
该内容尚未提供权利证明,无法提供下载。
专辑英文名Tancevalniy Marafon
专辑中文名魔鬼声音
歌手Vitas
资源格式APE
发行时间2002年
地区俄罗斯
语言俄语
简介

IPB Image


专辑介绍:

他叫Vitas,生于1981年2月19日。
没有人知道他的真名,也没有人知道在哪里可以找到他。
他很神秘,因为他从来不接受媒体采访。
他很另类,因为他敢于涂上鲜亮的口红。
他很有魅力,只要他站在舞台上,只要他开口唱歌,你就无法不注视他。
他的眼神,如同鬼魅一般,瞬间就让你如中了咒语般失去抵抗能力。


个人评价:

不要尖叫,估计你没有他高,
不要丑美,估计你没有他漂亮~
不要不动,估计你会为他的音乐而颤抖~

感谢原发人ego,下载后要修改CUE,使得它更加完美!

引用
PERFORMER "Vitas"
TITLE "Танцевальный марафон"
FILE "vitas.ape" WAVE
TRACK 01 AUDIO
TITLE "Прелюдия"
PERFORMER "Vitas"
INDEX 01 00:00:00
TRACK 02 AUDIO
TITLE "Улыбнись!"
PERFORMER "Vitas"
INDEX 01 05:27:17
TRACK 03 AUDIO
TITLE "Опера 2"
PERFORMER "Vitas"
INDEX 01 08:45:10
TRACK 04 AUDIO
TITLE "7 Элемент"
PERFORMER "Vitas"
INDEX 01 11:59:23
TRACK 05 AUDIO
TITLE "Тело"
PERFORMER "Vitas"
INDEX 01 16:07:68
TRACK 06 AUDIO
TITLE "Блаженный гуру"
PERFORMER "Vitas"
INDEX 01 20:13:31
TRACK 07 AUDIO
TITLE "Ave Maria"
PERFORMER "Vitas"
INDEX 01 24:41:39
TRACK 08 AUDIO
TITLE "Милая музыка"
PERFORMER "Vitas"
INDEX 01 28:11:13
TRACK 09 AUDIO
TITLE "Слепой художник"
PERFORMER "Vitas"
INDEX 01 31:00:25
TRACK 10 AUDIO
TITLE "Плачет чужая тоска"
PERFORMER "Vitas"
INDEX 01 36:14:61
TRACK 11 AUDIO
TITLE "Отцвели хризантемы"
PERFORMER "Vitas"
INDEX 01 40:39:26
TRACK 12 AUDIO
TITLE "Белоруссия"
PERFORMER "Vitas"
INDEX 01 44:31:19
TRACK 13 AUDIO
TITLE "Карлсон"
PERFORMER "Vitas"
INDEX 01 49:44:66
TRACK 14 AUDIO
TITLE "Старый граммофон"
PERFORMER "Vitas"
INDEX 01 53:51:16
TRACK 15 AUDIO
TITLE "Фантастические сны"
PERFORMER "Vitas"
INDEX 01 56:35:68
TRACK 16 AUDIO
TITLE "Счастье"
PERFORMER "Vitas"
INDEX 01 59:53:67
TRACK 17 AUDIO
TITLE "Good Bye"
PERFORMER "Vitas"
INDEX 01 63:00:50
TRACK 18 AUDIO
TITLE "День рождения моей смерти"
PERFORMER "Vitas"
INDEX 01 67:08:58
TRACK 19 AUDIO
TITLE "До свидания"
PERFORMER "Vitas"
INDEX 01 72:19:11



专辑曲目

01.Прелюдия
02.Улыбнись!
03.Опера 2
04.7 Элемент
05.Тело
06.Блаженный гуру
07.Ave Maria
08.Милая музыка
09.Слепой художник
10.Плачет чужая тоска
11.Отцвели хризантемы
12.Белоруссия
13.Карлсон
14.Старый граммофон
15.Фантастические сны
16.Счастье
17.Good Bye
18.День рождения моей смерти
19.До свидания

正在读取……

这里是其它用户补充的资源(我也要补充):

暂无补充资源
正在加载,请稍等...

点击查看所有60网友评论

 

(?) [公告]留口水、评论相关规则 | [活动]每日签到 轻松领取电驴经验

    小贴士:
  1. 类似“顶”、“沙发”之类没有营养的文字,对勤劳贡献的楼主来说是令人沮丧的反馈信息。
  2. 提问之前请再仔细看一遍楼主的说明,或许是您遗漏了。
  3. 勿催片。请相信驴友们对分享是富有激情的,如果确有更新版本,您一定能搜索到。
  4. 请勿到处挖坑绊人、招贴广告。既占空间让人厌烦,又没人会搭理,于人于己都无利。
  5. 如果您发现自己的评论不见了,请参考以上4条。