v

您的位置:VeryCD音乐古典音乐

音乐资源事务区


阿尔图罗·托斯卡尼尼 Arturo Toscanini -《贝多芬第五、第六交响曲》(Beethoven - Symphony No.5 & No.6)“现代指挥艺术的鼻祖”托斯卡尼尼最佳录音UV22版本[APE]

  • 状态: 精华资源
  • 摘要:
    发行时间1998年
  • 时间: 2005/11/26 07:54:23 发布 | 2007/10/05 20:25:30 更新
  • 分类: 音乐  古典音乐 

Xuhcan

精华资源: 4

全部资源: 4

相关: 分享到新浪微博   转播到腾讯微博   分享到开心网   分享到人人   分享到QQ空间   订阅本资源RSS更新   美味书签  subtitle
该内容尚未提供权利证明,无法提供下载。
专辑英文名Beethoven - Symphony No.5 & No.6
专辑中文名贝多芬第五、第六交响曲
资源格式APE
版本“现代指挥艺术的鼻祖”托斯卡尼尼最佳录音UV22版本
发行时间1998年
地区美国
简介

IPB Image



作者和指挥:
·路德维希·凡·贝多芬(Ludwig Van Beethoven,1770—1827),德国最伟大的音乐家之一。他信仰共和,崇尚英雄,创作了有大量充满时代气息的优秀作品。他集古典音乐的大成,同时开辟了浪漫时期音乐的道路,对世界音乐的发展有着举足轻重的作用,被尊称为“乐圣”。而“现代指挥艺术的鼻祖”——阿图索·托斯卡尼尼则毫无疑问——是一位大师级人物,而且也许是20世纪最伟大的音乐大师。

·阿尔图罗·托斯卡尼尼(Arturo Toscanini,1867-1957),意大利指挥家,大提琴演奏家。九岁入帕尔马音乐院学大提琴和作曲,1886年成为里约热内卢歌剧院的大提琴演奏者,代理指挥演出了《阿伊达》博得好评,从此就任正式指挥。同年返回意大利,在特里诺和米兰以指挥歌剧新作和瓦格纳的歌剧而着名。1903-1906年任布宜诺斯艾利斯歌剧院指挥,1908-1915年任纽约大都会歌剧院主任指挥。1915年回国,重任斯卡拉歌剧院音乐指导。1928-1936年任纽约交响乐团常任指挥。1937年任纽约交响乐团常任指挥。1937年美国音乐界为他挑选优秀演奏员组成NBC(国家广播公司)交响乐团,由他任指挥达十七年,直到1954年退休。

·在20世纪现代指挥艺术当中,如果说一定要推举出一位首领式的人物的话,那么这位首领恐怕是非托斯卡尼尼而莫属了,在现代指挥艺术蓬勃发展的近一百多年里,这个非凡人物所具有的特殊意义,是任何其他人都取代不了的,有人曾经说过这样的话:“托斯卡尼尼是我们这个时代中最具有传奇色彩的伟大人物之一,他可以当之无愧的被誉为20世纪现代指挥艺术的鼻祖”。这样的评价在今天看来也是毫不过分的。

·托斯卡尼尼的指挥风格主要是严谨、精湛、精确、质朴和热情。他的指挥棒技巧说来并不十分高超,但他却以一种特殊的魅力和手势引导着乐队,这些手势既简洁又洗练,非常富有表现力,在音乐内容需要时,它既能表达变化细微的表情,又能体现出激烈热情的戏剧性效果。由于他对作曲家的作品有着精确的理解,因此他的演释就总使人感到恰到好处,这也正像朱塞佩·塔罗齐在托斯卡尼尼的传记中所说得那样“托斯卡尼尼的伟大就在于他能极其忠实地把原作的意境传达给听众,既不添枝加叶,也不偷工减料”。

内容简介

·录音的一个最大好处是:它可以让今天的听众们有机会聆听到以前大师们的作品。
阿图索·托斯卡尼尼--毫无疑问是一位大师级人物,而且也许是20世纪最伟大的音乐大师。
大约十年前,当托斯卡尼尼的第一张密纹唱片选辑初面世时,唱片录制技术上的一次大的变革正初现端倪。
虽然这张唱片是利用了当时最为顶尖的录音技术录制的,但既然有更好的技术,我们没理由不回归到最初的声源,将大师的作品以更贴近原作的最佳面貌呈现出来。

·这套古典系列全部是用20bit录音技术重新录制的。我们相信您将在这张唱片中听到的全新的版本,与大师当年亲自审核发行最初版本时听到的几乎是一样的。

·托斯卡尼尼的诠释,被公认为“最正宗的贝多芬”、“古今无人能超越的典范”.

·本专辑收录的,为公认效果最佳、托翁1950年代与NBC交响乐团在卡内基音乐厅的录音,并动用了享誉专业录音界的UV22数字编码技术,对母带进行重制,将分辨率提升至20bit,使音质更佳,与以往版本截然不同. 音响更接近于大师指挥棒下所应有的不可思议的明亮饱满,截然不同于早先版本的普遍贫弱。与“命运”抗争的雄壮、美丽“田园”的清新,在分明的层次、宏伟的结构、流畅的音乐线条里流淌;沸腾的热情、强烈的理性,展现了托翁一向浩瀚、壮阔的感情与风格;惊人的张力与力度,更是气势磅礴,使每个段落都充满了生机!

代码
REM DISCID 8E108009
REM COMMENT "ExactAudioCopy v0.95b3"
PERFORMER "Toscanini & NBCso - 1952,Mar.22 & Jan.14"
TITLE "Beethoven - Symphony No.5 & No.6"
FILE "Arturo.Toscanini.-.[Beethoven.-.Symphony.No.5.-.No.6].专辑.(ape).ape" WAVE
  TRACK 01 AUDIO
    TITLE "Symphony No.5 in C minor 'Scbicksal' Op.67 - I. Allegro con brio"
    PERFORMER "Toscanini & NBCso - 1952,Mar.22 & Jan.14"
    INDEX 01 00:00:00
    REM DATE 1998
    REM COMMENT  YEAR: 1952
    REM GENRE Symphony
  TRACK 02 AUDIO
    TITLE "Symphony No.5 in C minor 'Scbicksal' Op.67 - II. Andante con moto"
    PERFORMER "Toscanini & NBCso - 1952,Mar.22 & Jan.14"
    INDEX 00 07:13:20
    INDEX 01 07:17:42
    REM DATE 1998
    REM COMMENT  YEAR: 1952
    REM GENRE Symphony
  TRACK 03 AUDIO
    TITLE "Symphony No.5 in C minor 'Scbicksal' Op.67 - III. Allegro"
    PERFORMER "Toscanini & NBCso - 1952,Mar.22 & Jan.14"
    INDEX 00 16:09:08
    INDEX 01 16:17:12
    REM DATE 1998
    REM COMMENT  YEAR: 1952
    REM GENRE Symphony
  TRACK 04 AUDIO
    TITLE "Symphony No.5 in C minor 'Scbicksal' Op.67 - IV. Allegro"
    PERFORMER "Toscanini & NBCso - 1952,Mar.22 & Jan.14"
    INDEX 00 20:54:33
    INDEX 01 20:54:35
    REM DATE 1998
    REM COMMENT  YEAR: 1952
    REM GENRE Symphony
  TRACK 05 AUDIO
    TITLE "Symphony No.6 in F major 'Pastorale' Op.68 - I. Happy feelings aroused on arriving in the country"
    PERFORMER "Toscanini & NBCso - 1952,Mar.22 & Jan.14"
    INDEX 00 29:20:08
    INDEX 01 29:29:60
    REM DATE 1998
    REM COMMENT  YEAR: 1952
    REM GENRE Symphony
  TRACK 06 AUDIO
    TITLE "Symphony No.6 in F major 'Pastorale' Op.68 - II. Scene by the brook"
    PERFORMER "Toscanini & NBCso - 1952,Mar.22 & Jan.14"
    INDEX 00 41:16:68
    INDEX 01 41:28:35
    REM DATE 1998
    REM COMMENT  YEAR: 1952
    REM GENRE Symphony
  TRACK 07 AUDIO
    TITLE "Symphony No.6 in F major 'Pastorale' Op.68 - III. Peasant's merry-making"
    PERFORMER "Toscanini & NBCso - 1952,Mar.22 & Jan.14"
    INDEX 00 52:56:60
    INDEX 01 53:06:35
    REM DATE 1998
    REM COMMENT  YEAR: 1952
    REM GENRE Symphony
  TRACK 08 AUDIO
    TITLE "Symphony No.6 in F major 'Pastorale' Op.68 - IV. Thunderstorm"
    PERFORMER "Toscanini & NBCso - 1952,Mar.22 & Jan.14"
    INDEX 00 58:07:03
    INDEX 01 58:07:05
    REM DATE 1998
    REM COMMENT  YEAR: 1952
    REM GENRE Symphony
  TRACK 09 AUDIO
    TITLE "Symphony No.6 in F major 'Pastorale' Op.68 - V. Sheperd's Song. Joyous thanksgiving after the storm"
    PERFORMER "Toscanini & NBCso - 1952,Mar.22 & Jan.14"
    INDEX 00 61:38:23
    INDEX 01 61:38:25
    REM DATE 1998
    REM COMMENT  YEAR: 1952
    REM GENRE Symphony



专辑曲目

C小调第五交响曲,作品67

1 Allegro con brio 灿烂的快板 7:11
2 Andante con moto 稍快的行板 8:52
3 Allegro 快板 4:37
4 Allegro 快板 8:52
(1952年3月22日录制于卡内基音乐厅,NBC电台播送)
Symphony No.6 in F Major, Op.68 “Pastorale” 40:56

F大调第六交响曲,作品68,田园

5 Happy feelings aroused on arriving in the country 11:47
初到乡村时的愉快感受
6 Scene by the brook 11:28
溪边小景
7 Peasant’s merry-making 5:01
乡村欢乐的集会
8 Thunderstorm 3:31
暴风雨
9 Shepherds’ Song: Joyous thanksgiving after the storm 8:47
牧歌:暴风雨过后欢乐和感激的心情
(1952年1月14日录制于卡内基音乐厅)

正在读取……

这里是其它用户补充的资源(我也要补充):

暂无补充资源
正在加载,请稍等...

点击查看所有19网友评论

 

(?) [公告]留口水、评论相关规则 | [活动]每日签到 轻松领取电驴经验

    小贴士:
  1. 类似“顶”、“沙发”之类没有营养的文字,对勤劳贡献的楼主来说是令人沮丧的反馈信息。
  2. 提问之前请再仔细看一遍楼主的说明,或许是您遗漏了。
  3. 勿催片。请相信驴友们对分享是富有激情的,如果确有更新版本,您一定能搜索到。
  4. 请勿到处挖坑绊人、招贴广告。既占空间让人厌烦,又没人会搭理,于人于己都无利。
  5. 如果您发现自己的评论不见了,请参考以上4条。