v

您的位置:VeryCD音乐古典音乐

音乐资源事务区


V.A -《恋人浪漫曲.第五辑》(Lover's.Romance.VOL.5)[APE]

  • 状态: 精华资源
  • 摘要:
    发行时间1985年
  • 时间: 2005/11/25 18:38:05 发布 | 2005/11/25 18:38:05 更新
  • 分类: 音乐  古典音乐 

^O^清风

精华资源: 109

全部资源: 117

相关: 分享到新浪微博   转播到腾讯微博   分享到开心网   分享到人人   分享到QQ空间   订阅本资源RSS更新   美味书签  subtitle
该内容尚未提供权利证明,无法提供下载。
专辑英文名Lover's.Romance.VOL.5
专辑中文名恋人浪漫曲.第五辑
艺术家V.A
资源格式APE
发行时间1985年
地区香港
简介

IPB Image


专辑介绍:

  Denver Music于80年代推出的浪漫轻音乐,许多曲目改编自优秀的欧美金曲,由于旋律极其优美,配器丰富而轻松,多样的演奏手法和技巧,充满了一种浪漫的情调,在八几年刚听到时,感觉就象一股清新的风扑面而来,令人耳目一新,在同类轻音乐作品中,这套可算是最正宗,最经典,是最好听的啦!该套碟由Sony Inc/Moonrise Records Co.录音,音色华丽而纯朴,效果极佳!绝对值得藏。

  这套音乐应该是八十年代中期开始在大陆广泛流行。共13集,由香港月升唱片公司(其实是CBS/SONY唱片公司的分支公司)1983年至1990年陆续出品。这是一套非常优秀的轻音乐,演奏风格纤细独特,选曲精良。单从封面设计来看,就足以让人爱不释手。尤其前六集,比后六集更为优秀。八十年代中期,恋人浪漫曲在大陆的磁带销量取得了非常好的成绩。当时CD卖到90元一张,而一套含六盒磁带的大礼盒才不过48元(后来涨到72元),CD价格令当时一般音乐爱好者望而却步。但CD到93年左右降到了60元。除了第九集封面设计和曲目梢弱一点外,其余都算上乘。

  其实,90年代初曾拥有Denver Music出的其它几盘精选磁带,当时真的是非常喜欢。后来便四处寻找这套CD,96年曾在北京西单路口的音像店见过,但那是只有几盘,也不全。再后来就一直没见过,从此这套CD就成了我心中一直未了的心愿。
ps:此介绍转自ESONG~

"To be loved is to know
happiness
and contentment...
To give love is to know
the joy of sharing oneself...
It is through the mirale of love
that we discover
the fullness of life."

感谢IMG的bg4rgl和五哥放牛两位朋友的发布~

CUE文件:

ps:此APE文件已经加入CUESHEET,可在FOOBAR下不用CUE直接听!

代码
PERFORMER "Various Artists"
TITLE "Lover's Romance Vol.5"
FILE "V.A.-.[恋人浪漫曲.第五辑(Lover's.Romance.VOL.5)].专辑.(ape).ape" WAVE
TRACK 01 AUDIO
TITLE "Tonight ICelebrate My Love"
PERFORMER "Various Artists"
INDEX 01 00:00:00
REM GENRE misc
REM DISCID ab0a030c
TRACK 02 AUDIO
TITLE "If You Love Me (Hymme A L'amour)"
PERFORMER "Various Artists"
INDEX 00 03:12:35
INDEX 01 03:14:37
REM GENRE misc
REM DISCID ab0a030c
TRACK 03 AUDIO
TITLE "Espoire"
PERFORMER "Various Artists"
INDEX 00 06:12:00
INDEX 01 06:13:50
REM GENRE misc
REM DISCID ab0a030c
TRACK 04 AUDIO
TITLE "You're My Everything"
PERFORMER "Various Artists"
INDEX 00 09:08:22
INDEX 01 09:10:10
REM GENRE misc
REM DISCID ab0a030c
TRACK 05 AUDIO
TITLE "Don't Cry For Me Argentina"
PERFORMER "Various Artists"
INDEX 00 14:14:25
INDEX 01 14:16:20
REM GENRE misc
REM DISCID ab0a030c
TRACK 06 AUDIO
TITLE "Growltiger's Last Stand"
PERFORMER "Various Artists"
INDEX 00 18:05:47
INDEX 01 18:07:60
REM GENRE misc
REM DISCID ab0a030c
TRACK 07 AUDIO
TITLE "Hello"
PERFORMER "Various Artists"
INDEX 00 21:19:25
INDEX 01 21:22:15
REM GENRE misc
REM DISCID ab0a030c
TRACK 08 AUDIO
TITLE "My Fair Share"
PERFORMER "Various Artists"
INDEX 00 25:24:13
INDEX 01 25:26:12
REM GENRE misc
REM DISCID ab0a030c
TRACK 09 AUDIO
TITLE "Dating Montage/Blue Ballon"
PERFORMER "Various Artists"
INDEX 00 28:47:22
INDEX 01 28:49:22
REM GENRE misc
REM DISCID ab0a030c
TRACK 10 AUDIO
TITLE "Amazing Grace"
PERFORMER "Various Artists"
INDEX 00 32:00:36
INDEX 01 32:02:50
REM GENRE misc
REM DISCID ab0a030c
TRACK 11 AUDIO
TITLE "Music Box Dancer"
PERFORMER "Various Artists"
INDEX 00 35:41:47
INDEX 01 35:43:42
REM GENRE misc
REM DISCID ab0a030c
TRACK 12 AUDIO
TITLE "A Song Of Joy (Symphony No.9)"
PERFORMER "Various Artists"
INDEX 00 38:45:12
INDEX 01 38:47:40
REM GENRE misc
REM DISCID ab0a030c



专辑曲目

01 A Song Of Joy
02 Amazing Grace
03 Dating Montage Blve Ballin
04 Don't Cry For Me Argenting
05 Espair
06 Growtinger's Last Stand
07 If You Love Me
08 Hello
09 Music Box Dancer
10 My Fair Share
11 Tonight I Celebrote
12 You're My Everything

正在读取……

这里是其它用户补充的资源(我也要补充):

暂无补充资源
正在加载,请稍等...

点击查看所有5网友评论

 

(?) [公告]留口水、评论相关规则 | [活动]每日签到 轻松领取电驴经验

    小贴士:
  1. 类似“顶”、“沙发”之类没有营养的文字,对勤劳贡献的楼主来说是令人沮丧的反馈信息。
  2. 提问之前请再仔细看一遍楼主的说明,或许是您遗漏了。
  3. 勿催片。请相信驴友们对分享是富有激情的,如果确有更新版本,您一定能搜索到。
  4. 请勿到处挖坑绊人、招贴广告。既占空间让人厌烦,又没人会搭理,于人于己都无利。
  5. 如果您发现自己的评论不见了,请参考以上4条。