v

您的位置:VeryCD音乐古典音乐

音乐资源事务区


周志宏 -《大自然音乐系列.鲸声奇遇》[APE]

  • 状态: 精华资源
  • 摘要:
  • 时间: 2005/11/25 11:13:02 发布 | 2005/11/25 11:13:02 更新
  • 分类: 音乐  古典音乐 

^O^清风

精华资源: 109

全部资源: 117

相关: 分享到新浪微博   转播到腾讯微博   分享到开心网   分享到人人   分享到QQ空间   订阅本资源RSS更新   美味书签  subtitle
该内容尚未提供权利证明,无法提供下载。
专辑中文名大自然音乐系列.鲸声奇遇
艺术家周志宏
资源格式APE
简介

IPB Image


专辑介绍:

鲸豚是哺乳类的动物,却生活在海洋之中,
留着温暖的血液、以乳汁乳哺幼儿、用肺深深地呼吸…
这是一张知性兼具感性的音乐专辑,海浪和着鲸声,
律动的节奏和着悠扬的曲调,
演释出鲸豚传奇的一生和它们细腻的心声。

[music]http://www.yijuy.com/bbs/UploadFile/2005-10/20051030163230416.mid[/music]

转自逸居园:http://www.yijuy.com/bbs/dispbbs.asp?BoardID=24&ID=14402
非常感谢Indego小姐的分享!


CUE文件:

ps:此APE文件已经加入CUESHEET,可在FOOBAR下不用CUE直接听!

代码
PERFORMER "大自然音乐系列"
TITLE "鲸声奇遇"
FILE "周志宏.-.[大自然音乐系列.鲸声奇遇].专辑.(ape).ape" WAVE
  TRACK 01 AUDIO
    TITLE "鲸声奇遇"
    INDEX 01 00:00:00
  TRACK 02 AUDIO
    TITLE "海中金丝雀"
    INDEX 01 06:22:16
  TRACK 03 AUDIO
    TITLE "神秘海洋"
    INDEX 01 12:16:24
  TRACK 04 AUDIO
    TITLE "远古的邂逅"
    INDEX 01 19:04:28
  TRACK 05 AUDIO
    TITLE "海豚之舞"
    INDEX 01 25:18:69
  TRACK 06 AUDIO
    TITLE "鲸灵传情"
    INDEX 01 30:50:13
  TRACK 07 AUDIO
    TITLE "海上喷泉"
    INDEX 01 35:12:22
  TRACK 08 AUDIO
    TITLE "海底游龙"
    INDEX 01 38:43:21
  TRACK 09 AUDIO
    TITLE "鲸心动魄"
    INDEX 01 41:08:15
  TRACK 10 AUDIO
    TITLE "永远的朋友"
    INDEX 01 45:43:47
  TRACK 11 AUDIO
    TITLE "鲸艳"
    INDEX 01 49:48:02
  TRACK 12 AUDIO
    TITLE "赏鲸趣"
    INDEX 01 53:12:55



专辑曲目

01.鲸声奇遇
02.海中金丝雀
03.神秘海洋
04.远古的邂逅
05.海豚之舞
06.鲸灵传情
07.海上喷泉
08.海底游龙
09.鲸心动魄
10.永远的朋友
11.鲸艳
12.赏鲸趣

正在读取……

这里是其它用户补充的资源(我也要补充):

暂无补充资源
正在加载,请稍等...

点击查看所有17网友评论

 

(?) [公告]留口水、评论相关规则 | [活动]每日签到 轻松领取电驴经验

    小贴士:
  1. 类似“顶”、“沙发”之类没有营养的文字,对勤劳贡献的楼主来说是令人沮丧的反馈信息。
  2. 提问之前请再仔细看一遍楼主的说明,或许是您遗漏了。
  3. 勿催片。请相信驴友们对分享是富有激情的,如果确有更新版本,您一定能搜索到。
  4. 请勿到处挖坑绊人、招贴广告。既占空间让人厌烦,又没人会搭理,于人于己都无利。
  5. 如果您发现自己的评论不见了,请参考以上4条。