v

您的位置:VeryCD音乐古典音乐

音乐资源事务区


John Adorney -《蓝》(Beckoning)[FLAC]

  • 状态: 精华资源
  • 摘要:
    发行时间1998年10月06日
  • 时间: 2005/11/24 17:21:09 发布 | 2005/11/24 17:21:09 更新
  • 分类: 音乐  古典音乐 

^O^清风

精华资源: 109

全部资源: 117

相关: 分享到新浪微博   转播到腾讯微博   分享到开心网   分享到人人   分享到QQ空间   订阅本资源RSS更新   美味书签  subtitle
该内容尚未提供权利证明,无法提供下载。
专辑英文名Beckoning
专辑中文名
别名心动
艺术家John Adorney
版本[FLAC]
发行时间1998年10月06日
地区美国
简介

IPB Image


专辑介绍:

  约翰.安铎尼在美国被誉为 “音乐舒压大师”,是擅长用音乐舒解都市人身心疲惫的传奇人物。据媒体介绍他自创了心灵辅助治疗音乐,透过不同的音程、节奏、拍速、振动频率,设计出具视觉意象的无声乐音。他根据独创的「星光作曲法则」,将星光的明灭化做波长、频率,融入于乐曲的创作中。 媒体为达到市场目的的宣传,往往削弱了我们耳朵独立欣赏的意识。对《Bechoning》这张专辑客观评价:它是悦耳的,轻松的。适合大众口味的“快餐”。你不需要特定的环境、特定的心情,随时可以让你的心序与音乐同步,而音乐描述的正是我们每天面对繁忙生活的应该持有的状态。 整张专辑节奏平缓、流畅,产生出在快节奏生活中的人们暗自向往的缓冲因素。不要以纯艺术的角度去欣赏它,不然,也许不经意间你在它身上看到某位音乐大师的影子,抑或没有找到曾让你心动的旋律而心存厌拒。舒压音乐需要大众化,并且有物理、生理的作用妙用其中。我们要做的唯有放松,音乐飘飘由耳入心,畅溢全身,在我们的血脉中轻快奔流,如略带寒意的春水融化浮冰,通畅的河岸,侵润着人们冰冻已久的心灵。

  专辑曲目的安排让人找到欣赏它的另一个角度。正如我们由年少及暮年,由躁动到闲静。由初识人生的波澜壮阔又看破迷雾而荣辱不惊。专辑描绘了人生旅程的代表例程,演绎着生命意志的轮回。


单曲介绍与试听:

   永不停歇(Neverending)
  当我们风华正茂,世界是如此奇妙,如此令人心动。我们冲着陌生的世界大声叫喊:世界是我的。躁动的青春供给我们用之不竭的能量,不停的追求永远相伴的是冲动。音乐中和谐鼓声伴着优美的人的和声,仿佛是青春轻快的脚步,到五彩斑斓的世界中去实现早以被诱幻了的梦。
[music]http://st3.ok.okxr.com/Song/448359/2005/11/02/030453,225678.mp3[/music]

   礼物(gift) 
  有追求就有收获,哪怕很小的礼物,也是消失能量的补充。小小的惊喜给你、给我带来好的心情。我们的路途并不孤单,一件小小的礼物让我们和亲人、朋友心儿相通。

   远行(或译为:远日点)(Aphelion)
  渐渐地青春走向成熟,有所收获以后,你仍要远行。困苦和孤独险些阻断路程,骄傲的心在痛苦中清醒。世界是这样的啊,远看是绚烂的诱惑,走近它烦恼丛生。烈日把你晒黑,象一断枕木,让你在远日点投下孤兀的身影。

   有缘会相逢(When Will I See You Again)
  在人生的路途,最不能缺少的是爱情。我们每天寻寻觅觅,为的是让我们的残缺心灵完整。当有一天你仍没有找到真爱,心灰意冷,为你仍然残缺的灵魂泪流满面,些时有位天使正携带爱神之箭骑在你旁边的树枝上顽皮地向你微笑。 丢弃烦恼吧,让箭射中。

   星月之舞(Dance of the Moon and Stars)
  与相爱的人相伴是如此甜蜜,此时天蓝、草碧、云白、风清。你是笛儿我是琴,笛声深悠远,琴声苦追寻。此曲的配乐显示出约翰.阿铎尼的音乐特色。不知疲倦的吉它,苦苦寻觅时远时近乖巧认性的笛声,仿佛人间男女相依相恋的情感,热烈从容,不即不离。

   心动(又译为:蓝)(Beckoning)
  我们的心灵历经新奇、冲动、收获、痛苦、爱情,复归平静。真的没有什么能让你心动了吗?生命的本质是躁动的,焦虑、不安、烦恼如灰尘把心灵深埋地下,从此你无法觉察爱人眼中的幽怨、亲人们遥远的牵挂。活得匆忙,来不及感受。人们往往忽略了那些亲切、熟悉的事物中所包含的价值与品质,更不屑于从琐碎的生活中淘洗出珍珠。然而,人生的幸福和快乐就蕴藏于平凡生活的细微处。

   庆典(Celebration)
  庆典可以是人生旅途豪华的驿站,也可以是静谧的凉亭。可以多人纵酒狂歌。也可以叁两知已小酌抒怀。无论怎样它都让生活更俱魅力。

   万事如意(All Is Well)
  万事如意是我们发自心底的祝福,祝福家人、祝福朋友、祝福自己。它是人生追求的美好情感,是解脱人生窘境的妙法。它让人感受更多的是平安是福,而并非雄霸天下的欲望均能实现。这首曲子不俱有节奏变换的特色,也没有新颖的结构,有的只有朴实无华,平和欢愉。这也许正是求得万事如意的生活哲学。

   舒缓(Solace)
  舒缓的音乐仿佛让人置身于荷塘月下,清风徐来,吹皱池水,惊醒睡莲。风过无痕,一切恢复平静。正如我们的心境,经历风雨,飘摇的灵魂,着陆于安稳的泥土,寻得从容真谛。

PS:以上介绍与资源转自http://bbs.VeryCD.com/topics/256220/
感谢BY老大的发布哦~ happy.gif


CUE文件:

ps:此FLAC文件已经加入CUESHEET,可在FOOBAR下不用CUE直接听!

代码
PERFORMER "John Adorney"
TITLE "Beckoning"
FILE "John.Adorney.-.[Beckoning].专辑.(flac).flac" WAVE
  TRACK 01 AUDIO
    TITLE "The Gift"
    PERFORMER "John Adorney"
    INDEX 01 00:00:00
  TRACK 02 AUDIO
    TITLE "Beckoning"
    PERFORMER "John Adorney"
    INDEX 00 04:38:42
    INDEX 01 04:40:12
  TRACK 03 AUDIO
    TITLE "The Gathering"
    PERFORMER "John Adorney"
    INDEX 00 09:08:22
    INDEX 01 09:09:62
  TRACK 04 AUDIO
    TITLE "Solace"
    PERFORMER "John Adorney"
    INDEX 00 15:14:52
    INDEX 01 15:18:02
  TRACK 05 AUDIO
    TITLE "When Will I See You Again"
    PERFORMER "John Adorney"
    INDEX 01 19:27:20
  TRACK 06 AUDIO
    TITLE "Neverending"
    PERFORMER "John Adorney"
    INDEX 00 25:25:15
    INDEX 01 25:26:65
  TRACK 07 AUDIO
    TITLE "All Is Well"
    PERFORMER "John Adorney"
    INDEX 00 30:39:22
    INDEX 01 30:40:45
  TRACK 08 AUDIO
    TITLE "Moving On"
    PERFORMER "John Adorney"
    INDEX 00 34:58:73
    INDEX 01 35:01:65
  TRACK 09 AUDIO
    TITLE "Aphelion"
    PERFORMER "John Adorney"
    INDEX 00 41:13:20
    INDEX 01 41:16:72
  TRACK 10 AUDIO
    TITLE "Celebration"
    PERFORMER "John Adorney"
    INDEX 00 46:32:60
    INDEX 01 46:35:70
  TRACK 11 AUDIO
    TITLE "Dance of the Moon and Stars"
    PERFORMER "John Adorney"
    INDEX 00 51:19:37
    INDEX 01 51:23:47



专辑曲目

01 The Gift
02 Beckoning
03 The Gathering
04 Solace
05 When Will I See You Again
06 Neverending
07 All Is Well
08 Moving On
09 Aphelion
10 Celebration
11 Dance Of The Moon And Stars

正在读取……

这里是其它用户补充的资源(我也要补充):

暂无补充资源
正在加载,请稍等...

点击查看所有25网友评论

 

(?) [公告]留口水、评论相关规则 | [活动]每日签到 轻松领取电驴经验

    小贴士:
  1. 类似“顶”、“沙发”之类没有营养的文字,对勤劳贡献的楼主来说是令人沮丧的反馈信息。
  2. 提问之前请再仔细看一遍楼主的说明,或许是您遗漏了。
  3. 勿催片。请相信驴友们对分享是富有激情的,如果确有更新版本,您一定能搜索到。
  4. 请勿到处挖坑绊人、招贴广告。既占空间让人厌烦,又没人会搭理,于人于己都无利。
  5. 如果您发现自己的评论不见了,请参考以上4条。