v

您的位置:VeryCD音乐古典音乐

音乐资源事务区


曼陀凡尼(Mantovani) -《古典美乐》(Great.Tunes.of.Classic.Music)发烧天碟[APE]

  • 状态: 精华资源
  • 摘要:
  • 时间: 2005/11/24 11:11:18 发布 | 2005/11/24 11:11:18 更新
  • 分类: 音乐  古典音乐 

^O^清风

精华资源: 109

全部资源: 117

相关: 分享到新浪微博   转播到腾讯微博   分享到开心网   分享到人人   分享到QQ空间   订阅本资源RSS更新   美味书签  subtitle
该内容尚未提供权利证明,无法提供下载。
专辑英文名Great.Tunes.of.Classic.Music
专辑中文名古典美乐
资源格式APE
版本发烧天碟
地区美国
语言英语
简介

IPB Image


专辑介绍:

  这个乐团的指挥曼陀凡尼1905年生于意大利威尼斯的一个音乐世家,父亲曾是托斯卡尼尼乐队的首席小提琴手。曼陀凡尼自小在父亲的指导下学习小提琴,青年时代举家迁居英国,考入伦敦音乐学院。16岁即公开演出布鲁赫和圣桑的小提琴协奏曲。18岁时,他在伯明翰组织了一只六人乐队,在旅馆和剧院作职业性演出,以演奏轻音乐为主,他是乐队的主要小提琴手。他那清湛的演奏技巧和华丽明朗的美妙琴声,使人听后回味无穷,于是当时的他就已经以小提琴演奏家的身份赢得巨大的声望。1933年,曼陀凡尼加入了英国籍,此后他重新组建了一个以弦乐为主的庞大的管弦乐团,这就是后来的曼陀凡尼乐团。

  曼陀凡尼从管弦乐团的弦乐器中找到了富有特殊色彩的音响,这种富有特色的弦乐演奏,就此成为他乐团所特有的音乐特色。此后,曼陀凡尼改编了大量雅俗共赏、和谐悦耳的乐曲,听众给他的乐团取了一个“曼陀凡尼之声”的雅号。相比那些喧杂热烈的现代流行音乐来说,曼陀凡尼的音乐无疑是一服令人舒畅的清凉剂。曼陀凡尼的成功,主要在于他充分了解小提琴的表现方式,并能恰如其分地驾驭管弦乐队,使整个乐队非常精确地表达出这位小提琴家所特有的演奏风格,使听众为之倾到。

  在五、六十年代,曼陀凡尼的演奏几乎风靡了世界每一个角落,成为人听人爱的美乐,唱片畅销数十年,并成为全球首位立体声LP销量突破一百万的音乐家。而在中国,曼陀凡尼亦是在“文革”之后的各地广播电台中播放率最高的外国音乐代表,当年他那抒情清新的乐韵,不知让多少的中国乐迷领略了“外面的”音乐世界,从而留下了无数美丽的回忆。
原出处:http://www.imagegarden.net/bbs/showthread_502300.html
感谢IMG的lxlxlx朋友发布!

特别感谢CBA255老哥的支持和帮助!

CUE文件:

ps:此APE文件已经加入CUESHEET,可在FOOBAR下不用CUE直接听!

代码
PERFORMER "The Mantovani Orchestra"
TITLE "Great Tunes of Classic Music"
FILE "曼陀凡尼(Mantovani).-.[古典美乐(Great.Tunes.of.Classic.Music)].专辑.(ape).ape" WAVE
  TRACK 01 AUDIO
    TITLE "Spanish Dance"
    PERFORMER "The Mantovani Orchestra"
    INDEX 01 00:00:00
  TRACK 02 AUDIO
    TITLE "Meditation from 'Thais'"
    PERFORMER "The Mantovani Orchestra"
    INDEX 00 04:21:49
    INDEX 01 04:23:38
  TRACK 03 AUDIO
    TITLE "'Air' on the G Strings"
    PERFORMER "The Mantovani Orchestra"
    INDEX 00 09:41:27
    INDEX 01 09:43:27
  TRACK 04 AUDIO
    TITLE "Schon Rosmarin"
    PERFORMER "The Mantovani Orchestra"
    INDEX 00 13:36:65
    INDEX 01 13:38:65
  TRACK 05 AUDIO
    TITLE "Ave Maria"
    PERFORMER "The Mantovani Orchestra"
    INDEX 00 15:54:15
    INDEX 01 15:56:15
  TRACK 06 AUDIO
    TITLE "Zigeunerweisen"
    PERFORMER "The Mantovani Orchestra"
    INDEX 00 21:25:68
    INDEX 01 21:27:64
  TRACK 07 AUDIO
    TITLE "Song of India"
    PERFORMER "The Mantovani Orchestra"
    INDEX 00 26:27:13
    INDEX 01 26:29:13
  TRACK 08 AUDIO
    TITLE "The Skater's Waltz"
    PERFORMER "The Mantovani Orchestra"
    INDEX 00 29:44:07
    INDEX 01 29:46:07
  TRACK 09 AUDIO
    TITLE "Solveig's Song"
    PERFORMER "The Mantovani Orchestra"
    INDEX 00 32:47:38
    INDEX 01 32:48:24
  TRACK 10 AUDIO
    TITLE "Slavonic Dance No.2 in E Minor"
    PERFORMER "The Mantovani Orchestra"
    INDEX 00 37:29:57
    INDEX 01 37:30:50
  TRACK 11 AUDIO
    TITLE "Hungarian Dance No.5"
    PERFORMER "The Mantovani Orchestra"
    INDEX 00 42:03:70
    INDEX 01 42:05:52
  TRACK 12 AUDIO
    TITLE "On Wings of Song"
    PERFORMER "The Mantovani Orchestra"
    INDEX 00 44:41:02
    INDEX 01 44:43:02
  TRACK 13 AUDIO
    TITLE "Chair De Lune"
    PERFORMER "The Mantovani Orchestra"
    INDEX 00 47:21:02
    INDEX 01 47:23:02
  TRACK 14 AUDIO
    TITLE "Albeniz's Tango"
    PERFORMER "The Mantovani Orchestra"
    INDEX 00 52:11:54
    INDEX 01 52:13:54
  TRACK 15 AUDIO
    TITLE "Czardas"
    PERFORMER "The Mantovani Orchestra"
    INDEX 00 55:06:28
    INDEX 01 55:08:28
  TRACK 16 AUDIO
    TITLE "Eine Kline Nachtmusik"
    PERFORMER "The Mantovani Orchestra"
    INDEX 00 59:55:60
    INDEX 01 59:57:55
  TRACK 17 AUDIO
    TITLE "Chanson De Matin ( Morning Song )"
    PERFORMER "The Mantovani Orchestra"
    INDEX 00 63:59:34
    INDEX 01 64:00:53
  TRACK 18 AUDIO
    TITLE "None But the Lonely Heart"
    PERFORMER "The Mantovani Orchestra"
    INDEX 00 66:59:40
    INDEX 01 67:01:27



专辑曲目

01. Spanish Dance - 4:23
02. Meditation from 'Thais' - 5:19
03. 'Air' on the G Strings - 3:55
04. Schon Rosmarin - 2:17
05. Ave Maria - 5:31
06. Zigeunerweisen - 5:01
07. Song of India - 3:16
08. The Skater's Waltz - 3:02
09. Solveig's Song - 4:42
10. Slavonic Dance No.2 in E Minor - 4:35
11. Hungarian Dance No.5 - 2:37
12. On Wings of Song - 2:40
13. Chair De Lune - 4:50
14. Albeniz's Tango - 2:54
15. Czardas - 4:49
16. Eine Kline Nachtmusik - 4:02
17. Chanson De Matin ( Morning Song ) - 3:00
18. None But the Lonely Heart - 3:23

正在读取……

这里是其它用户补充的资源(我也要补充):

暂无补充资源
正在加载,请稍等...

点击查看所有36网友评论

 

(?) [公告]留口水、评论相关规则 | [活动]每日签到 轻松领取电驴经验

    小贴士:
  1. 类似“顶”、“沙发”之类没有营养的文字,对勤劳贡献的楼主来说是令人沮丧的反馈信息。
  2. 提问之前请再仔细看一遍楼主的说明,或许是您遗漏了。
  3. 勿催片。请相信驴友们对分享是富有激情的,如果确有更新版本,您一定能搜索到。
  4. 请勿到处挖坑绊人、招贴广告。既占空间让人厌烦,又没人会搭理,于人于己都无利。
  5. 如果您发现自己的评论不见了,请参考以上4条。