v

您的位置:VeryCD音乐古典音乐

音乐资源事务区


《心灵鸡汤.唤醒篇》(Chicken.Soup.Soul.Awakening)[APE]

  • 状态: 精华资源
  • 摘要:
    发行时间2004年
  • 时间: 2005/11/14 20:18:19 发布 | 2005/11/14 20:18:19 更新
  • 分类: 音乐  古典音乐 

^O^清风

精华资源: 109

全部资源: 117

相关: 分享到新浪微博   转播到腾讯微博   分享到开心网   分享到人人   分享到QQ空间   订阅本资源RSS更新   美味书签  subtitle
该内容尚未提供权利证明,无法提供下载。
专辑英文名Chicken.Soup.Soul.Awakening
专辑中文名心灵鸡汤.唤醒篇
资源格式APE
发行时间2004年
语言英语
简介

IPB Image


专辑介绍:

  晨曦中舒展的音符带你飘进新的一天,细缓而励志的旋律给你心灵新的希望……

系列介绍:

  每张音乐专集以激励鼓舞、松懈心神、舒解伤痛、唤起热诚为宗旨,让您在精神、心灵和生理上,感觉舒畅。 每张CD集内更有《心灵鸡汤》丛书合著者Mark Victor Hansen 就该主题所发表及朗读的「鼓励之言」。

IPB Image

CUE文件:

PERFORMER "Chicken Soup Soul"
TITLE "awakening"
FILE "心灵鸡汤(Chicken.Soup.Soul.).-.[唤醒篇(Awakening)].专辑.(ape).ape" BINARY
TRACK 01 AUDIO
TITLE "Awakenings"
PERFORMER "Chicken Soup Soul"
INDEX 01 00:00:00
TRACK 02 AUDIO
TITLE "Dawn"
PERFORMER "Chicken Soup Soul"
INDEX 01 05:12:29
TRACK 03 AUDIO
TITLE "Quiet Moments"
PERFORMER "Chicken Soup Soul"
INDEX 01 13:17:37
TRACK 04 AUDIO
TITLE "Spirit of the Flower Petals"
PERFORMER "Chicken Soup Soul"
INDEX 01 19:48:62
TRACK 05 AUDIO
TITLE "Eternal Flame"
PERFORMER "Chicken Soup Soul"
INDEX 01 24:45:67
TRACK 06 AUDIO
TITLE "Wind Dancer"
PERFORMER "Chicken Soup Soul"
INDEX 01 31:43:36
TRACK 07 AUDIO
TITLE "Into My Dream"
PERFORMER "Chicken Soup Soul"
INDEX 01 39:23:01
TRACK 08 AUDIO
TITLE "Awakenings"
PERFORMER "Chicken Soup Soul"
INDEX 01 45:40:67



专辑曲目

1. Awakenings
2. Dawn
3. Quiet Moments
4. Spirit of the Flower Petals
5. Eternal Flame
6. Wind Dancer
7. Into My Dream
8. Awakenings

正在读取……

这里是其它用户补充的资源(我也要补充):

暂无补充资源
正在加载,请稍等...

点击查看所有5网友评论

 

(?) [公告]留口水、评论相关规则 | [活动]每日签到 轻松领取电驴经验

    小贴士:
  1. 类似“顶”、“沙发”之类没有营养的文字,对勤劳贡献的楼主来说是令人沮丧的反馈信息。
  2. 提问之前请再仔细看一遍楼主的说明,或许是您遗漏了。
  3. 勿催片。请相信驴友们对分享是富有激情的,如果确有更新版本,您一定能搜索到。
  4. 请勿到处挖坑绊人、招贴广告。既占空间让人厌烦,又没人会搭理,于人于己都无利。
  5. 如果您发现自己的评论不见了,请参考以上4条。