v

您的位置:VeryCD音乐古典音乐

音乐资源事务区


《心灵鸡汤.灵感篇》(Chicken.Soup.Soul.Inspiration)[APE]

  • 状态: 精华资源
  • 摘要:
    发行时间2004年
  • 时间: 2005/11/12 09:13:56 发布 | 2005/11/12 09:13:56 更新
  • 分类: 音乐  古典音乐 

^O^清风

精华资源: 109

全部资源: 117

相关: 分享到新浪微博   转播到腾讯微博   分享到开心网   分享到人人   分享到QQ空间   订阅本资源RSS更新   美味书签  subtitle
该内容尚未提供权利证明,无法提供下载。
专辑英文名Chicken.Soup.Soul.Inspiration
专辑中文名心灵鸡汤.灵感篇
资源格式APE
发行时间2004年
语言英语
简介

IPB Image


专辑介绍:

  一首首晶莹透彻的曲子,拌着飘忽的思索慢慢走进你的心灵深处,燃起你那点灵感之光……

系列介绍:

  每张音乐专集以激励鼓舞、松懈心神、舒解伤痛、唤起热诚为宗旨,让您在精神、心灵和生理上,感觉舒畅。 每张CD集内更有《心灵鸡汤》丛书合著者Mark Victor Hansen 就该主题所发表及朗读的「鼓励之言」。

IPB Image

CUE文件:

PERFORMER "Chicken Soup Soul"
TITLE "inspiration"
FILE "心灵鸡汤(Chicken.Soup.Soul.).-.[灵感篇(Inspiration)].专辑.(ape).ape" BINARY
TRACK 01 AUDIO
TITLE "Mountain Peak"
PERFORMER "Chicken Soup Soul"
INDEX 01 00:00:00
TRACK 02 AUDIO
TITLE "Free to Be"
PERFORMER "Chicken Soup Soul"
INDEX 01 05:34:55
TRACK 03 AUDIO
TITLE "Earthly Harmonies"
PERFORMER "Chicken Soup Soul"
INDEX 01 11:32:19
TRACK 04 AUDIO
TITLE "Sunshower"
PERFORMER "Chicken Soup Soul"
INDEX 01 16:38:47
TRACK 05 AUDIO
TITLE "Sky Flyer"
PERFORMER "Chicken Soup Soul"
INDEX 01 20:33:56
TRACK 06 AUDIO
TITLE "Circle of Love"
PERFORMER "Chicken Soup Soul"
INDEX 01 23:57:60
TRACK 07 AUDIO
TITLE "Points of Light"
PERFORMER "Chicken Soup Soul"
INDEX 01 26:54:69
TRACK 08 AUDIO
TITLE "Heaven on Earth"
PERFORMER "Chicken Soup Soul"
INDEX 01 31:29:29
TRACK 09 AUDIO
TITLE "Timeless"
PERFORMER "Chicken Soup Soul"
INDEX 01 35:18:28
TRACK 10 AUDIO
TITLE "Serenity"
PERFORMER "Chicken Soup Soul"
INDEX 01 41:15:73
TRACK 11 AUDIO
TITLE "Planet Hope"
PERFORMER "Chicken Soup Soul"
INDEX 01 45:18:41
TRACK 12 AUDIO
TITLE "Inspiration"
PERFORMER "Chicken Soup Soul"
INDEX 01 49:11:42



专辑曲目

1. Mountain Peak
2. Free to Be
3. Earthly Harmonies
4. Sunshower
5. Sky Flyer
6. Circle of Love
7. Points of Light
8. Heaven on Earth
9. Timeless
10. Serenity
11. Planet Hope
12. Inspiration

正在读取……

这里是其它用户补充的资源(我也要补充):

暂无补充资源
正在加载,请稍等...

点击查看所有11网友评论

 

(?) [公告]留口水、评论相关规则 | [活动]每日签到 轻松领取电驴经验

    小贴士:
  1. 类似“顶”、“沙发”之类没有营养的文字,对勤劳贡献的楼主来说是令人沮丧的反馈信息。
  2. 提问之前请再仔细看一遍楼主的说明,或许是您遗漏了。
  3. 勿催片。请相信驴友们对分享是富有激情的,如果确有更新版本,您一定能搜索到。
  4. 请勿到处挖坑绊人、招贴广告。既占空间让人厌烦,又没人会搭理,于人于己都无利。
  5. 如果您发现自己的评论不见了,请参考以上4条。