v

您的位置:VeryCD音乐古典音乐

音乐资源事务区


《心灵鸡汤.疗养篇》(Chicken.Soup.Soul.Healing)[APE]

  • 状态: 精华资源
  • 摘要:
    发行时间2004年
  • 时间: 2005/11/10 09:05:32 发布 | 2005/11/10 09:05:32 更新
  • 分类: 音乐  古典音乐 

^O^清风

精华资源: 109

全部资源: 117

相关: 分享到新浪微博   转播到腾讯微博   分享到开心网   分享到人人   分享到QQ空间   订阅本资源RSS更新   美味书签  subtitle
该内容尚未提供权利证明,无法提供下载。
专辑英文名Chicken.Soup.Soul.Healing
专辑中文名心灵鸡汤.疗养篇
资源格式APE
发行时间2004年
语言英语
简介

IPB Image


专辑介绍:

  在繁忙的都市穿行一天,忙碌着这样和那样的事情,脑子里总是要为人生百态不停运转……回到寂静的家中,面对那种刹时的空虚和寂寞,心灵从火热的熔炉刹那间恍惚回到冰河世纪,思念却在这刻无情地伸向你的心窝去钩起那岁月留下伤疤……闭上眼睛放松身体,来进入心灵治疗之旅吧,让潺潺的水声与海浪的轻拍之声去治疗你的心灵吧……

系列介绍:

  每张音乐专集以激励鼓舞、松懈心神、舒解伤痛、唤起热诚为宗旨,让您在精神、心灵和生理上,感觉舒畅。 每张CD集内更有《心灵鸡汤》丛书合著者Mark Victor Hansen 就该主题所发表及朗读的「鼓励之言」。

IPB Image

CUE文件:

FILE "心灵鸡汤(Chicken.Soup.Soul.).-.[疗养篇(Healing)].专辑.(ape).ape" BINARY
TRACK 01 AUDIO
INDEX 01 00:00:00
TRACK 02 AUDIO
INDEX 01 06:50:70
TRACK 03 AUDIO
INDEX 01 11:43:64
TRACK 04 AUDIO
INDEX 01 17:04:36
TRACK 05 AUDIO
INDEX 01 23:07:31
TRACK 06 AUDIO
INDEX 01 28:31:26
TRACK 07 AUDIO
INDEX 01 35:03:21
TRACK 08 AUDIO
INDEX 01 40:47:15
TRACK 09 AUDIO
INDEX 01 46:30:13



专辑曲目

1. Peaceful Waters
2. Forgiveness
3. Distant Shores
4. Paradise Sea
5. Healing Waves
6. Trance
7. Gentle Breezes
8. Dolphin Days
9. Healing

正在读取……

这里是其它用户补充的资源(我也要补充):

暂无补充资源
正在加载,请稍等...

点击查看所有8网友评论

 

(?) [公告]留口水、评论相关规则 | [活动]每日签到 轻松领取电驴经验

    小贴士:
  1. 类似“顶”、“沙发”之类没有营养的文字,对勤劳贡献的楼主来说是令人沮丧的反馈信息。
  2. 提问之前请再仔细看一遍楼主的说明,或许是您遗漏了。
  3. 勿催片。请相信驴友们对分享是富有激情的,如果确有更新版本,您一定能搜索到。
  4. 请勿到处挖坑绊人、招贴广告。既占空间让人厌烦,又没人会搭理,于人于己都无利。
  5. 如果您发现自己的评论不见了,请参考以上4条。