v

您的位置:VeryCD音乐古典音乐

音乐资源事务区


班得瑞(Bandari) -《班得瑞.月光水岸》(Bandari.Moonlight.Bay)[APE]

  • 状态: 精华资源
  • 摘要:
    发行时间2004年
  • 时间: 2005/11/10 08:59:35 发布 | 2005/11/10 08:59:35 更新
  • 分类: 音乐  古典音乐 

^O^清风

精华资源: 109

全部资源: 117

相关: 分享到新浪微博   转播到腾讯微博   分享到开心网   分享到人人   分享到QQ空间   订阅本资源RSS更新   美味书签  subtitle
该内容尚未提供权利证明,无法提供下载。
专辑英文名Bandari.Moonlight.Bay
专辑中文名班得瑞.月光水岸
艺术家班得瑞(Bandari)
资源格式APE
发行时间2004年
地区瑞士
语言英语
简介

IPB Image


专辑介绍:
  
  班得瑞第10张新世纪专辑,来自瑞士一尘不染的音符空灵飘渺的音乐世界本辑中,班得瑞首次以夜为场景,将瑞士山林与天地间的自然静谧,转化成一首首澄静心灵的不朽乐章。其中除了10首全新创作外,亦包含来自爱尔兰、英格兰、法国等地的作曲家作品,如恩雅「牧羊人之月」、「浮水印」、莎拉布莱曼「月光女神」专辑中的代表作、以及电影《艾蜜莉的异想世界》配乐,扩展了班得瑞的音乐宽度,亦演奏出唯有他们才能呈现的瑞士山林风情。

CUE文件:

PERFORMER "Bandari"
TITLE "Moonlight Bay"
FILE "班得瑞(Bandari).-.[月光水岸(Moonlight.Bay)].专辑.(ape).ape" WAVE
TRACK 01 AUDIO
TITLE "Caribbean Blue"
PERFORMER "Bandari"
INDEX 01 00:00:00
TRACK 02 AUDIO
TITLE "Rainbow River"
PERFORMER "Bandari"
INDEX 00 03:53:30
INDEX 01 03:56:30
TRACK 03 AUDIO
TITLE "Hijo De La Luna"
PERFORMER "Bandari"
INDEX 00 07:56:27
INDEX 01 07:59:27
TRACK 04 AUDIO
TITLE "The Book of Life"
PERFORMER "Bandari"
INDEX 00 12:09:29
INDEX 01 12:12:29
TRACK 05 AUDIO
TITLE "Moonglow"
PERFORMER "Bandari"
INDEX 00 16:34:24
INDEX 01 16:37:24
TRACK 06 AUDIO
TITLE "Mystic Zone"
PERFORMER "Bandari"
INDEX 00 20:23:72
INDEX 01 20:26:72
TRACK 07 AUDIO
TITLE "Lonely Hearts"
PERFORMER "Bandari"
INDEX 00 24:03:28
INDEX 01 24:06:28
TRACK 08 AUDIO
TITLE "Celtic Waltz"
PERFORMER "Bandari"
INDEX 00 27:23:60
INDEX 01 27:26:60
TRACK 09 AUDIO
TITLE "The Glory Way"
PERFORMER "Bandari"
INDEX 00 30:51:41
INDEX 01 30:54:41
TRACK 10 AUDIO
TITLE "Watermark"
PERFORMER "Bandari"
INDEX 00 34:42:16
INDEX 01 34:45:16
TRACK 11 AUDIO
TITLE "Moning Mood"
PERFORMER "Bandari"
INDEX 00 37:20:28
INDEX 01 37:23:28
TRACK 12 AUDIO
TITLE "Winter Dreams"
PERFORMER "Bandari"
INDEX 00 41:13:25
INDEX 01 41:16:25
TRACK 13 AUDIO
TITLE "La Valse D'Amelie(Version for piano)"
PERFORMER "Bandari"
INDEX 00 45:15:17
INDEX 01 45:18:17
TRACK 14 AUDIO
TITLE "Law of the Lord"
PERFORMER "Bandari"
INDEX 00 48:11:48
INDEX 01 48:14:48

ps:这是我手上的最后一张班得瑞了,如果那位大哥(姐)有其他专辑,希望也发出来哦,谢谢!



专辑曲目

01.Caribbean Blue 加勒比海蓝
02.Rainbow River 彩虹河
03.Hijo De La Luna 月光之子
04.The Book of Life 生命之书
05.Moonglow 月光
06.Mystic Zone 奇幻领域
07.Lonely Hearts 寂寞心事
08.Celtic Waltz 克尔特华尔滋
09.The Glory Way 光明之路
10.Watermark 浮水印
11.Morning Mood 晨歌
12.Winter Dreams 冬梦
13.La Valse D'Amelie 艾蜜莉圆舞曲
14.Law of the Lord 神律

正在读取……

这里是其它用户补充的资源(我也要补充):

暂无补充资源
正在加载,请稍等...

点击查看所有141网友评论

 

(?) [公告]留口水、评论相关规则 | [活动]每日签到 轻松领取电驴经验

    小贴士:
  1. 类似“顶”、“沙发”之类没有营养的文字,对勤劳贡献的楼主来说是令人沮丧的反馈信息。
  2. 提问之前请再仔细看一遍楼主的说明,或许是您遗漏了。
  3. 勿催片。请相信驴友们对分享是富有激情的,如果确有更新版本,您一定能搜索到。
  4. 请勿到处挖坑绊人、招贴广告。既占空间让人厌烦,又没人会搭理,于人于己都无利。
  5. 如果您发现自己的评论不见了,请参考以上4条。