v

您的位置:VeryCD音乐古典音乐

音乐资源事务区


班得瑞(Bandari) -《班得瑞.微风山谷》(Bandari.Breezy.Valley)[APE]

  • 状态: 精华资源
  • 摘要:
    发行时间2003年
  • 时间: 2005/11/08 10:44:45 发布 | 2005/11/08 10:44:45 更新
  • 分类: 音乐  古典音乐 

^O^清风

精华资源: 109

全部资源: 117

相关: 分享到新浪微博   转播到腾讯微博   分享到开心网   分享到人人   分享到QQ空间   订阅本资源RSS更新   美味书签  subtitle
该内容尚未提供权利证明,无法提供下载。
专辑英文名Bandari.Breezy.Valley
专辑中文名班得瑞.微风山谷
艺术家班得瑞(Bandari)
资源格式APE
发行时间2003年
地区瑞士
语言英语
简介

IPB Image


专辑介绍:

  班得瑞 第9张新世纪专辑 来自瑞士一尘不染的音符

  成军超过10年的班得瑞,为新世纪乐坛最走红的「元老级」团体。行事低调的他们,总在「世界花园」--瑞士山林里寻找创作灵感,希望能以音乐来转达潜含於自然界里最真实的情感,以超广角音场、空灵飘渺的编曲,呈现一尘不染的新世纪乐风。

  整张专辑,他们花了叁年的时间,埋首於瑞士南方的萨斯菲山谷( Saasfee Valley)之中,不仅实地撷取当地的自然原声为素材,并以音乐忠实呈现从白霭冷洌的雪色,舒人胸怀的绿茵,到静观月升的静谧,沐浴温暖日落等不同时空的时节变化。承袭班得瑞以往对於自然界刻画的细腻工笔,你彷佛在这14首乐曲中乘风而行,跟着地形的起伏而滑行於山谷间各个角落,感受平原的辽阔,山峦的雄伟,赞叹造物者的鬼斧神工。

CUE文件:

PERFORMER "Bandari班得瑞樂團"
TITLE "微風山谷-Breezy Valley"
FILE "班得瑞(Bandari).-.[微风山谷(Breezy.Valley)].专辑.(ape).ape" WAVE
TRACK 01 AUDIO
TITLE "Snow / 靜靜的雪"
PERFORMER "Bandari班得瑞樂團"
INDEX 01 00:00:00
TRACK 02 AUDIO
TITLE "天使群聚之歌"
PERFORMER "Bandari班得瑞樂團"
INDEX 00 05:15:62
INDEX 01 05:20:62
TRACK 03 AUDIO
TITLE "狂熱夏日"
PERFORMER "Bandari班得瑞樂團"
INDEX 00 08:59:45
INDEX 01 09:04:45
TRACK 04 AUDIO
TITLE "火星金星"
PERFORMER "Bandari班得瑞樂團"
INDEX 00 13:21:34
INDEX 01 13:26:34
TRACK 05 AUDIO
TITLE "夢於月光中"
PERFORMER "Bandari班得瑞樂團"
INDEX 01 17:12:41
TRACK 06 AUDIO
TITLE "一生愛戀"
PERFORMER "Bandari班得瑞樂團"
INDEX 00 21:59:20
INDEX 01 22:04:20
TRACK 07 AUDIO
TITLE "日落幽谷"
PERFORMER "Bandari班得瑞樂團"
INDEX 00 25:50:59
INDEX 01 25:55:59
TRACK 08 AUDIO
TITLE "今夜愛來臨"
PERFORMER "Bandari班得瑞樂團"
INDEX 00 29:42:39
INDEX 01 29:47:39
TRACK 09 AUDIO
TITLE "再一次愛"
PERFORMER "Bandari班得瑞樂團"
INDEX 00 32:53:00
INDEX 01 32:55:00
TRACK 10 AUDIO
TITLE "人間天上"
PERFORMER "Bandari班得瑞樂團"
INDEX 00 36:17:70
INDEX 01 36:22:70
TRACK 11 AUDIO
TITLE "春枝綠葉"
PERFORMER "Bandari班得瑞樂團"
INDEX 00 40:28:64
INDEX 01 40:33:64
TRACK 12 AUDIO
TITLE "日出晨安"
PERFORMER "Bandari班得瑞樂團"
INDEX 00 44:02:38
INDEX 01 44:07:38
TRACK 13 AUDIO
TITLE "微風吹拂的方式"
PERFORMER "Bandari班得瑞樂團"
INDEX 00 47:35:64
INDEX 01 47:40:64
TRACK 14 AUDIO
TITLE "唯心所欲"
PERFORMER "Bandari班得瑞樂團"
INDEX 00 52:10:60
INDEX 01 52:15:60



专辑曲目

01. Snow 静静的雪
02. Love Me Tonight 今夜爱来临
03. Dreaming In The Moonlight 梦于月光中
04. Song Of The Angles 天使群聚之歌
05. Mars And Venus 火星金星
06. Indian Summer 狂热夏日
07. Love Of My Life 一生爱恋
08. Sunset Valley 落日幽谷
09. If I Love Again 再一次爱
10. Heaven On Earth 人间天上
11. Good Morning Sunshine 日出晨安
12. For Your Heart Only 唯心所识
13. Green Leaves Of Spring 春枝绿叶
14. The Way Of The Wind 微风吹拂的方式

正在读取……

这里是其它用户补充的资源(我也要补充):

暂无补充资源
正在加载,请稍等...

点击查看所有199网友评论

 

(?) [公告]留口水、评论相关规则 | [活动]每日签到 轻松领取电驴经验

    小贴士:
  1. 类似“顶”、“沙发”之类没有营养的文字,对勤劳贡献的楼主来说是令人沮丧的反馈信息。
  2. 提问之前请再仔细看一遍楼主的说明,或许是您遗漏了。
  3. 勿催片。请相信驴友们对分享是富有激情的,如果确有更新版本,您一定能搜索到。
  4. 请勿到处挖坑绊人、招贴广告。既占空间让人厌烦,又没人会搭理,于人于己都无利。
  5. 如果您发现自己的评论不见了,请参考以上4条。