v

您的位置:VeryCD音乐古典音乐

音乐资源事务区


曼陀凡尼 -《曼陀凡尼金曲精选》(Mantovani's.Golden.Hits)[APE]

  • 状态: 精华资源
  • 摘要:
    发行时间1990年
  • 时间: 2005/11/08 10:15:55 发布 | 2005/11/08 10:15:55 更新
  • 分类: 音乐  古典音乐 

^O^清风

精华资源: 109

全部资源: 117

相关: 分享到新浪微博   转播到腾讯微博   分享到开心网   分享到人人   分享到QQ空间   订阅本资源RSS更新   美味书签  subtitle
该内容尚未提供权利证明,无法提供下载。
专辑英文名Mantovani's.Golden.Hits
专辑中文名曼陀凡尼金曲精选
艺术家曼陀凡尼
资源格式APE
发行时间1990年
地区美国
语言英语
简介

IPB Image


专辑介绍:

  相信曼陀凡尼的作品大家已经耳熟能详了,这是他的一张金曲精选,里面的曲子全是优美悠扬的旋律,听着听着给人一种全身放松的感觉,也象自己在慢慢旋转着起舞一般,若放着轻悠的音量细细品尝,有会有一种催人入梦的意境,作夜我听着听着竟然睡着了,呵呵~大家不要见笑哦~

曼陀凡尼简介:

  这个乐团的指挥曼陀凡尼1905年生于意大利威尼斯的一个音乐世家,父亲曾是托斯卡尼尼乐队的首席小提琴手。曼陀凡尼自小在父亲的指导下学习小提琴,青年时代举家迁居英国,考入伦敦音乐学院。16岁即公开演出布鲁赫和圣桑的小提琴协奏曲。18岁时,他在伯明翰组织了一只六人乐队,在旅馆和剧院作职业性演出,以演奏轻音乐为主,他是乐队的主要小提琴手。他那清湛的演奏技巧和华丽明朗的美妙琴声,使人听后回味无穷,于是当时的他就已经以小提琴演奏家的身份赢得巨大的声望。1933年,曼陀凡尼加入了英国籍,此后他重新组建了一个以弦乐为主的庞大的管弦乐团,这就是后来的曼陀凡尼乐团。

  曼陀凡尼从管弦乐团的弦乐器中找到了富有特殊色彩的音响,这种富有特色的弦乐演奏,就此成为他乐团所特有的音乐特色。此后,曼陀凡尼改编了大量雅俗共赏、和谐悦耳的乐曲,听众给他的乐团取了一个“曼陀凡尼之声”的雅号。相比那些喧杂热烈的现代流行音乐来说,曼陀凡尼的音乐无疑是一服令人舒畅的清凉剂。曼陀凡尼的成功,主要在于他充分了解小提琴的表现方式,并能恰如其分地驾驭管弦乐队,使整个乐队非常精确地表达出这位小提琴家所特有的演奏风格,使听众为之倾到。

  在五、六十年代,曼陀凡尼的演奏几乎风靡了世界每一个角落,成为人听人爱的美乐,唱片畅销数十年,并成为全球首位立体声LP销量突破一百万的音乐家。而在中国,曼陀凡尼亦是在“文革”之后的各地广播电台中播放率最高的外国音乐代表,当年他那抒情清新的乐韵,不知让多少的中国乐迷领略了“外面的”音乐世界,从而留下了无数美丽的回忆。

原出处:http://www.imagegarden.net/bbs/showthread_535750.html
感谢IMG的wangfeieee朋友发布!

CUE文件:

REM GENRE "Easy Listening"
REM DATE 1967
REM DISCID 8208860C
REM COMMENT "ExactAudioCopy v0.95b2"
PERFORMER "Mantovani"
TITLE "Mantovani's Golden Hits"
FILE "曼陀凡尼(Mantovani).-.[曼陀凡尼金曲精选(Mantovani's.Golden.Hits)].专辑.(ape).ape" WAVE
TRACK 01 AUDIO
TITLE "Charmaine"
PERFORMER "Mantovani"
INDEX 00 00:00:00
INDEX 01 00:00:32
TRACK 02 AUDIO
TITLE "Moon River"
PERFORMER "Mantovani"
INDEX 00 03:07:57
INDEX 01 03:09:07
TRACK 03 AUDIO
TITLE "The Moulin Rouge Theme"
PERFORMER "Mantovani"
INDEX 00 05:39:00
INDEX 01 05:40:50
TRACK 04 AUDIO
TITLE "Summertime In Venice"
PERFORMER "Mantovani"
INDEX 00 08:30:00
INDEX 01 08:31:72
TRACK 05 AUDIO
TITLE "Diane"
PERFORMER "Mantovani"
INDEX 00 11:57:05
INDEX 01 11:58:50
TRACK 06 AUDIO
TITLE "Limelight (Terry's Theme)"
PERFORMER "Mantovani"
INDEX 00 15:23:65
INDEX 01 15:26:35
TRACK 07 AUDIO
TITLE "Greensleeves"
PERFORMER "Mantovani"
INDEX 00 18:25:52
INDEX 01 18:28:32
TRACK 08 AUDIO
TITLE "True Love"
PERFORMER "Mantovani"
INDEX 00 21:49:62
INDEX 01 21:52:25
TRACK 09 AUDIO
TITLE "La Vie En Rose"
PERFORMER "Mantovani"
INDEX 00 25:03:55
INDEX 01 25:06:22
TRACK 10 AUDIO
TITLE "Around The World"
PERFORMER "Mantovani"
INDEX 00 28:02:52
INDEX 01 28:04:47
TRACK 11 AUDIO
TITLE "Some Enchanted Evening"
PERFORMER "Mantovani"
INDEX 00 30:09:35
INDEX 01 30:11:55
TRACK 12 AUDIO
TITLE "Swedish Rhapsody"
PERFORMER "Mantovani"
INDEX 00 33:42:40
INDEX 01 33:45:00



专辑曲目

01. Charmaine [0:03:08.50]
02. Moon River [0:02:31.43]
03. The Moulin Rouge Theme [0:02:51.22]
04. Summertime In Venice [0:03:26.53]
05. Diane [0:03:27.60]
06. Limelight (Terry's Theme) [0:03:01.72]
07. Greensleeves [0:03:23.68]
08. True Love [0:03:13.72]
09. La Vie En Rose [0:02:58.25]
10. Around The World [0:02:07.08]
11. Some Enchanted Evening [0:03:33.20]
12. Swedish Rhapsody [0:02:37.67]

正在读取……

这里是其它用户补充的资源(我也要补充):

暂无补充资源
正在加载,请稍等...

点击查看所有32网友评论

 

(?) [公告]留口水、评论相关规则 | [活动]每日签到 轻松领取电驴经验

    小贴士:
  1. 类似“顶”、“沙发”之类没有营养的文字,对勤劳贡献的楼主来说是令人沮丧的反馈信息。
  2. 提问之前请再仔细看一遍楼主的说明,或许是您遗漏了。
  3. 勿催片。请相信驴友们对分享是富有激情的,如果确有更新版本,您一定能搜索到。
  4. 请勿到处挖坑绊人、招贴广告。既占空间让人厌烦,又没人会搭理,于人于己都无利。
  5. 如果您发现自己的评论不见了,请参考以上4条。