v

您的位置:VeryCD音乐古典音乐

音乐资源事务区


《心灵鸡汤.激情篇》(Chicken.Soup.Soul.Passion)[APE]

  • 状态: 精华资源
  • 摘要:
    发行时间2004年
  • 时间: 2005/11/08 09:20:00 发布 | 2005/11/08 09:20:00 更新
  • 分类: 音乐  古典音乐 

^O^清风

精华资源: 109

全部资源: 117

相关: 分享到新浪微博   转播到腾讯微博   分享到开心网   分享到人人   分享到QQ空间   订阅本资源RSS更新   美味书签  subtitle
该内容尚未提供权利证明,无法提供下载。
专辑英文名Chicken.Soup.Soul.Passion
专辑中文名心灵鸡汤.激情篇
资源格式APE
发行时间2004年
语言英语
简介

IPB Image


专辑介绍:

朝气的阳光挥洒在脸上,激情洋溢在心头,一起领略这番热情之火吧~

系列介绍:

  每张音乐专集以激励鼓舞、松懈心神、舒解伤痛、唤起热诚为宗旨,让您在精神、心灵和生理上,感觉舒畅。 每张CD集内更有《心灵鸡汤》丛书合著者Mark Victor Hansen 就该主题所发表及朗读的「鼓励之言」。

IPB Image

CUE文件:

PERFORMER "Chicken Soup Soul"
TITLE "Passion"
FILE "心灵鸡汤(Chicken.Soup.Soul.).-.[激情篇(Passion)].专辑.(ape).ape" BINARY
TRACK 01 AUDIO
TITLE "Passion Suite"
PERFORMER "Chicken Soup Soul"
INDEX 01 00:00:00
TRACK 02 AUDIO
TITLE "Meet Me in Rio"
PERFORMER "Chicken Soup Soul"
INDEX 01 05:36:34
TRACK 03 AUDIO
TITLE "Cuban Breeze"
PERFORMER "Chicken Soup Soul"
INDEX 01 12:46:31
TRACK 04 AUDIO
TITLE "After the Fire"
PERFORMER "Chicken Soup Soul"
INDEX 01 17:30:27
TRACK 05 AUDIO
TITLE "Voices in the Dark"
PERFORMER "Chicken Soup Soul"
INDEX 01 20:28:20
TRACK 06 AUDIO
TITLE "Flames of Love"
PERFORMER "Chicken Soup Soul"
INDEX 01 26:07:15
TRACK 07 AUDIO
TITLE "Tropical Heart"
PERFORMER "Chicken Soup Soul"
INDEX 01 30:01:11
TRACK 08 AUDIO
TITLE "Beautiful Breezes"
PERFORMER "Chicken Soup Soul"
INDEX 01 36:15:07
TRACK 09 AUDIO
TITLE "Stroll in Central Park"
PERFORMER "Chicken Soup Soul"
INDEX 01 41:42:03
TRACK 10 AUDIO
TITLE "Two to Tango"
PERFORMER "Chicken Soup Soul"
INDEX 01 46:26:30
TRACK 11 AUDIO
TITLE "Passion - Mark Victor Hansen"
PERFORMER "Chicken Soup Soul"
INDEX 01 50:05:25



专辑曲目

1. Passion Suite
2. Meet Me in Rio
3. Cuban Breeze
4. After the Fire
5. Voices in the Dark
6. Flames of Love
7. Tropical Heart
8. Beautiful Breezes
9. Stroll in Central Park
10. Two to Tango
11. Passion - Mark Victor Hansen

正在读取……

这里是其它用户补充的资源(我也要补充):

暂无补充资源
正在加载,请稍等...

点击查看所有15网友评论

 

(?) [公告]留口水、评论相关规则 | [活动]每日签到 轻松领取电驴经验

    小贴士:
  1. 类似“顶”、“沙发”之类没有营养的文字,对勤劳贡献的楼主来说是令人沮丧的反馈信息。
  2. 提问之前请再仔细看一遍楼主的说明,或许是您遗漏了。
  3. 勿催片。请相信驴友们对分享是富有激情的,如果确有更新版本,您一定能搜索到。
  4. 请勿到处挖坑绊人、招贴广告。既占空间让人厌烦,又没人会搭理,于人于己都无利。
  5. 如果您发现自己的评论不见了,请参考以上4条。