v

您的位置:VeryCD音乐古典音乐

音乐资源事务区


班得瑞(Bandari) -《班得瑞.琉璃湖畔》(Bandari.Crystal.Lake)[APE]

  • 状态: 精华资源
  • 摘要:
    发行时间2002年
  • 时间: 2005/11/06 14:56:05 发布 | 2005/11/06 14:56:05 更新
  • 分类: 音乐  古典音乐 

^O^清风

精华资源: 109

全部资源: 117

相关: 分享到新浪微博   转播到腾讯微博   分享到开心网   分享到人人   分享到QQ空间   订阅本资源RSS更新   美味书签  subtitle
该内容尚未提供权利证明,无法提供下载。
专辑英文名Bandari.Crystal.Lake
专辑中文名班得瑞.琉璃湖畔
艺术家班得瑞(Bandari)
资源格式APE
发行时间2002年
地区瑞士
语言英语
简介

IPB Image

专辑介绍:

  浸淫在宽阔的瑞士山林,空气透明到彷佛连阳光的颗粒都能看见,班得瑞全新挑战以超广角音场、空灵飘渺编曲,呈现出一尘不染的新世纪音乐!将纯净的湖面风光,呈现在清新自然的声波中,只要听过一遍,相信您便能深刻体会班得瑞走红乐坛十二年的脱俗魅力!14首空灵仙乐,点滴描绘出多层次变化的湖畔景致!您将感受到阿尔卑斯山顶晨雾氤氲的湖面波浪,还有那沉堆一夜的月色自湖心隐隐透光的迷幻风情;从日升到宁静午夜的微妙变化。细腻动态尽在琉璃湖畔中清晰可鉴!音质感与聆赏惊艳度,自然是更上一层楼!班得瑞特别拉远了音场的景深,以表现风平浪静时,湖畔辽阔的回音;到底水底下蕴藏的是什么样神秘生物呢?班得瑞请您用心来体会……

曲目介绍:

1. Mystica 秘密
世外桃源总是神秘的,自古至今,谁也无缘前去一探究竟;每个人都期待自己就是下一个幸运儿。此时此刻,通往香格里拉的时空之门,现在正开启着呢…

2. Marco Polo 马可波罗
再没有比马可波罗更具冒险魅力的代表人物了。充满东方意象的音乐气氛,是否暗谕这座神秘的琉璃湖畔,其实湖心就接连着神秘的东方呢?

4. Summerwaltz 夏日华尔兹
夏日的高山湖畔生机蓬勃,围绕四周的动物们齐舞生命节奏,凡所需所求,俯拾皆是,大地又何曾贫瘠到要让生灵杀戮相争呢?一首纪念生态环保的乐曲。

5.Black windmill 黑风车
风车似乎是童话的图腾,它令热爱机械的男孩为之倾倒,也令爱做梦的少女找到安全感,只是长大后,它只剩下回忆里的一抹黑剪影。

6.Gapanese girl/东方女孩
柔顺温婉是东方女性的美名,所以若要为这座湖泊塑造一位守护女神,黑发凤眼、神秘迷离的东方女孩便成为上上首选。

7. The Wings of Ikarus 依卡路斯的羽翼
这位希腊神话的神祇,张着象征神圣的翅膀,威严而荣华。让人羡慕的不只是那手中呼风唤雨的魔法,而是那祥和宁静的存在境界。

8.Theme From Missing思念
思念从来都不是静态的活动。越来越快的心跳、才刚坐着又起身踱步;即使看起来凭栏低回的模样,心中也是波涛汹涌。

9.Sparkling Raindrops涟漪
只有在逢雨时节,宁静的湖面才激起无数涟漪。满满一片的小水丘紧紧相连,短暂却又生机无限,就像一场从天而降的水舞。

10. Blue Love Theme 忧郁的爱
爱让人变得多愁善感,也让人学着不怕受伤,也开始懂得享受忧郁。从爱而来的忧郁,说穿了,只是穿上万圣节戏装的甜蜜罢了。

11.A Day Without Rain晴天
恩雅所诠释的晴天,是一种雨过天晴的释怀;班得瑞的版本,却是一种对大自然信任与欣赏。雨天或放晴,不带批判,只有感谢。

12.Aqua Blue水蓝 
除非水够深沉,否则很难看出水的蓝。一条路除非走得够远,否则很难为它命名。梦想除非深刻到足以让你相信,否则很难成真。

13.White Moon Over Jibet西藏的月
东方的明月总是看起来已心事重重,她总放心不下那酒醉的诗人,更得费心收容那弃夫的王后,似乎东方的月亮离人间比较近。

14. Loverletter to You 情书
如果你有机会徜徉在这座美丽的琉璃湖畔,而你暂时还不想离开,或甚至考虑着就此定居下来……此刻在你心中,你会想写信邀请谁来陪你呢?

CUE文件:

PERFORMER "Bandari"
TITLE "Grystal Lake"
FILE "班得瑞(Bandari).-.[琉璃湖畔(Crystal.Lake)].专辑.(ape).ape" WAVE
TRACK 01 AUDIO
TITLE "Mystica"
PERFORMER "Bandari"
INDEX 01 00:00:00
TRACK 02 AUDIO
TITLE "Marco Polo"
PERFORMER "Bandari"
INDEX 00 03:11:69
INDEX 01 03:16:69
TRACK 03 AUDIO
TITLE "Raindrops On Your Face"
PERFORMER "Bandari"
INDEX 00 07:23:25
INDEX 01 07:28:25
TRACK 04 AUDIO
TITLE "Summerwaltz"
PERFORMER "Bandari"
INDEX 00 12:05:14
INDEX 01 12:10:14
TRACK 05 AUDIO
TITLE "Black Windmill"
PERFORMER "Bandari"
INDEX 00 14:59:34
INDEX 01 15:04:34
TRACK 06 AUDIO
TITLE "Fapanese Girl"
PERFORMER "Bandari"
INDEX 00 17:39:64
INDEX 01 17:44:64
TRACK 07 AUDIO
TITLE "The Wings Of Jkarus"
PERFORMER "Bandari"
INDEX 00 22:31:40
INDEX 01 22:36:40
TRACK 08 AUDIO
TITLE "Theme From Missing"
PERFORMER "Bandari"
INDEX 00 25:59:47
INDEX 01 26:04:47
TRACK 09 AUDIO
TITLE "Sparkling Raindrops"
PERFORMER "Bandari"
INDEX 00 29:50:24
INDEX 01 29:55:25
TRACK 10 AUDIO
TITLE "Blue Love Theme"
PERFORMER "Bandari"
INDEX 00 33:04:25
INDEX 01 33:09:25
TRACK 11 AUDIO
TITLE "A Day Without Rain"
PERFORMER "Bandari"
INDEX 00 38:05:55
INDEX 01 38:10:55
TRACK 12 AUDIO
TITLE "Aqua Blue"
PERFORMER "Bandari"
INDEX 00 40:44:16
INDEX 01 40:49:16
TRACK 13 AUDIO
TITLE "White Moon Over Jibet"
PERFORMER "Bandari"
INDEX 00 43:25:37
INDEX 01 43:30:37
TRACK 14 AUDIO
TITLE "Loverletter To You"
PERFORMER "Bandari"
INDEX 00 47:06:04
INDEX 01 47:11:04



专辑曲目

01. BLACK WINDMILL (黑风车)
02. LOVERLETTER TO YOU (情书)
03. MYSTICA (秘密)
04. MARCO POLO (马可波罗)
05. SUMMERWALTZ (夏日华尔兹)
06. JAPANESE GIRL (日本女孩)
07. THE WINGS OF IKARUS(依卡路斯的羽翼)
08. THEME FROM MISSING (思念)
09. SPARKLING RAINDROPS (涟漪)
10. BLUE LOVE THEME (犹豫的爱)
11. A DAY WITHOUT RAIN (雨过天晴)
12. AQUA BLUE (水蓝)
13. WHITE MOON OVER TIBET (西藏的月)
14. RAINDROPS ON YOUR FACE(雨打在你脸上)

正在读取……

这里是其它用户补充的资源(我也要补充):

暂无补充资源
正在加载,请稍等...

点击查看所有72网友评论

 

(?) [公告]留口水、评论相关规则 | [活动]每日签到 轻松领取电驴经验

    小贴士:
  1. 类似“顶”、“沙发”之类没有营养的文字,对勤劳贡献的楼主来说是令人沮丧的反馈信息。
  2. 提问之前请再仔细看一遍楼主的说明,或许是您遗漏了。
  3. 勿催片。请相信驴友们对分享是富有激情的,如果确有更新版本,您一定能搜索到。
  4. 请勿到处挖坑绊人、招贴广告。既占空间让人厌烦,又没人会搭理,于人于己都无利。
  5. 如果您发现自己的评论不见了,请参考以上4条。