v

您的位置:VeryCD音乐古典音乐

音乐资源事务区


ERA -《完美圣咏女声》(Ocarina Dream Opera)[APE]

  • 状态: 精华资源
  • 摘要:
  • 时间: 2005/11/06 14:39:55 发布 | 2005/11/06 14:39:55 更新
  • 分类: 音乐  古典音乐 

bygood

精华资源: 462

全部资源: 462

相关: 分享到新浪微博   转播到腾讯微博   分享到开心网   分享到人人   分享到QQ空间   订阅本资源RSS更新   美味书签  subtitle
该内容尚未提供权利证明,无法提供下载。
专辑英文名Ocarina Dream Opera
专辑中文名完美圣咏女声
艺术家ERA
资源格式APE
地区美国
语言英语
简介

IPB Image


专辑介绍:

只知道《Era》、《EraⅡ》、《The Mass》、《The best of Era》四张,真不知道还有《Ocarina Dream Opera》、《Looking from East》、《Infinity》、《Sacredness》、《Magic Spirit》五张,是真是假?不过这张听起来很舒服。。。 欢迎打假! laugh.gif

友情提示:

下载好了,请将CUE文件做修改,以确保正常播放!以下提供正确CUE文件样本!


引用
PERFORMER "ERA"
TITLE "Ocarina Dream Opera"
FILE "CDImage.ape" WAVE
TRACK 01 AUDIO
TITLE "Penance"
PERFORMER "ERA"
INDEX 01 00:00:00
TRACK 02 AUDIO
TITLE "The Solemn Vow (Tbs)"
PERFORMER "ERA"
INDEX 01 00:33:21
TRACK 03 AUDIO
TITLE "L'Amour Est Un Oiseau Rebelle (Carmen)"
PERFORMER "ERA"
INDEX 01 03:12:26
TRACK 04 AUDIO
TITLE "Secrets Of The Soul"
PERFORMER "ERA"
INDEX 01 06:03:74
TRACK 05 AUDIO
TITLE "Mi Chiamano Mimi (La Bohllme)"
PERFORMER "ERA"
INDEX 01 10:18:20
TRACK 06 AUDIO
TITLE "Prayer To The Guardian Angel"
PERFORMER "ERA"
INDEX 01 13:44:32
TRACK 07 AUDIO
TITLE "Un Bel Di, Vedremo (M-me Butterfly)"
PERFORMER "ERA"
INDEX 01 14:49:39
TRACK 08 AUDIO
TITLE "The Struggle Within"
PERFORMER "ERA"
INDEX 01 17:43:60
TRACK 09 AUDIO
TITLE "Casta Diva (La Norma)"
PERFORMER "ERA"
INDEX 01 22:21:47
TRACK 10 AUDIO
TITLE "The Enduring Flame"
PERFORMER "ERA"
INDEX 01 27:03:34
TRACK 11 AUDIO
TITLE "O Mio Babbino Caro (Gianni Schicchi)"
PERFORMER "ERA"
INDEX 01 30:49:25
TRACK 12 AUDIO
TITLE "Words Of Absolution"
PERFORMER "ERA"
INDEX 01 33:29:34
TRACK 13 AUDIO
TITLE "E Lucevan Le Stelle (Tosca)"
PERFORMER "ERA"
INDEX 01 35:11:25
TRACK 14 AUDIO
TITLE "The Workers Of Iniquity)"
PERFORMER "ERA"
INDEX 01 38:03:57
TRACK 15 AUDIO
TITLE "In Quelle Trine Morbide (Manon Lescaut)"
PERFORMER "ERA"
INDEX 01 42:39:46
TRACK 16 AUDIO
TITLE "Prayer Of Quiet"
PERFORMER "ERA"
INDEX 01 45:29:19
TRACK 17 AUDIO
TITLE "Vissi D'Arte Vissi D'Amore (Tosca)"
PERFORMER "ERA"
INDEX 01 49:25:22
TRACK 18 AUDIO
TITLE "Stains Of Sin"
PERFORMER "ERA"
INDEX 01 52:16:56
TRACK 19 AUDIO
TITLE "Ah, Fors'e Lui (La Traviata)"
PERFORMER "ERA"
INDEX 01 55:43:12
TRACK 20 AUDIO
TITLE "Threads Of Life"
PERFORMER "ERA"
INDEX 01 58:18:15
TRACK 21 AUDIO
TITLE "Un Bel Di, Vedremo (version longue)"
PERFORMER "ERA"
INDEX 01 61:40:61
TRACK 22 AUDIO
TITLE "Prima Donna (Tribute To Yuri Ogawa)"
PERFORMER "ERA"
INDEX 01 66:16:41
TRACK 23 AUDIO
TITLE "The Solemn (Spirit Dance)"
PERFORMER "ERA"
INDEX 01 69:48:69



专辑曲目

01.Penance
02.The Solemn Vow (Tbs)
03.L'Amour Est Un Oiseau Rebelle (Carmen)
04.Secrets Of The Soul
05.Mi Chiamano Mimi (La Bohllme)
06.Prayer To The Guardian Angel
07.Un Bel Di, Vedremo (M-me Butterfly)
08.The Struggle Within
09.Casta Diva (La Norma)
10.The Enduring Flame
11.O Mio Babbino Caro (Gianni Schicchi)
12.Words Of Absolution
13.E Lucevan Le Stelle (Tosca)
14.The Workers Of Iniquity)
15.In Quelle Trine Morbide (Manon Lescaut)
16.Prayer Of Quiet
17.Vissi D'Arte Vissi D'Amore (Tosca)
18.Stains Of Sin
19.Ah, Fors'e Lui (La Traviata)
20.Threads Of Life
21.Un Bel Di, Vedremo (version longue)
22.Prima Donna (Tribute To Yuri Ogawa)
23.The Solemn (Spirit Dance)

正在读取……

这里是其它用户补充的资源(我也要补充):

wangchoubo 2009/12/04 09:47:26 补充
很美的女声,喜欢。看封面有点假,跟前几张专辑的封面设计根本 不是一种风格,显得比较低级。转

该内容尚未提供权利证明,无法提供下载。
正在加载,请稍等...

点击查看所有30网友评论

 

(?) [公告]留口水、评论相关规则 | [活动]每日签到 轻松领取电驴经验

    小贴士:
  1. 类似“顶”、“沙发”之类没有营养的文字,对勤劳贡献的楼主来说是令人沮丧的反馈信息。
  2. 提问之前请再仔细看一遍楼主的说明,或许是您遗漏了。
  3. 勿催片。请相信驴友们对分享是富有激情的,如果确有更新版本,您一定能搜索到。
  4. 请勿到处挖坑绊人、招贴广告。既占空间让人厌烦,又没人会搭理,于人于己都无利。
  5. 如果您发现自己的评论不见了,请参考以上4条。