v

您的位置:VeryCD音乐古典音乐

音乐资源事务区


《德国MANGER公司试音杂锦.靓声王》(Musik.wie.von.einem.anderen.Stern)[APE]

  • 状态: 精华资源
  • 摘要:
    发行时间2001年
  • 时间: 2005/11/06 14:20:27 发布 | 2005/11/06 14:20:27 更新
  • 分类: 音乐  古典音乐 

^O^清风

精华资源: 109

全部资源: 117

相关: 分享到新浪微博   转播到腾讯微博   分享到开心网   分享到人人   分享到QQ空间   订阅本资源RSS更新   美味书签  subtitle
该内容尚未提供权利证明,无法提供下载。
专辑英文名Musik.wie.von.einem.anderen.Stern
专辑中文名德国MANGER公司试音杂锦.靓声王
资源格式APE
发行时间2001年
地区德国
语言英语
简介

IPB Image


专辑介绍:
  
  《靓声王》一张罕有靓声试音天碟,它是由德国的MANGER唱片公司出品的一张发烧精选专辑。里面收录了十五段各种内容的音乐,试尽各种乐器、人声、钢琴声,如第三段的《贝多芬奏鸣曲》晶莹通透的钢琴声、第五段中《四季小提琴协奏曲》小提琴声甜润有余、第八段的结他声铿锵结实、第十和十三段牛筋弹跳力十足,萨克斯风,小号所发出音色更悦耳迷人,第十一和十二段人声醇厚突出,第十五段鼓声澎湃雄浑有劲,难怪众多知名乐评人一致激节赞赏,并给与极高度评价。

CUE文件:

PERFORMER "德国MANGER公司试音杂锦"
TITLE "靓声王(Musik.wie.von.einem.anderen.Stern)"
FILE "德国MANGER公司试音杂锦.-.[靓声王(Musik.wie.von.einem.anderen.Stern)].专辑.(ape).ape" WAVE
TRACK 01 AUDIO
TITLE "Volles Gelat"
PERFORMER "Guersloher Glocken"
INDEX 01 00:00:00
TRACK 02 AUDIO
TITLE "Der Himmel deckt alles mit Stille zu"
PERFORMER "Jean Paul - Hospiel"
INDEX 01 03:13:89
TRACK 03 AUDIO
TITLE "Beethoven, Sonate Nr.8, C-Dur, Op 13"
PERFORMER "Bruno Leonardo Gelber"
INDEX 01 07:13:22
TRACK 04 AUDIO
TITLE "Beethoven, Ich liebe Dich"
PERFORMER "Hermann Prey"
INDEX 01 16:03:93
TRACK 05 AUDIO
TITLE "Vivaldi, Der Winter"
PERFORMER "Sonatori de la Gioiosa marca
INDEX 01 17:52:30
TRACK 06 AUDIO
TITLE "Haydn, Sinfonie Nr.67, F-Dur, 1.Satz"
PERFORMER "Leipziger Gewandhausorchester, Herbert Blomstedt"
INDEX 01 20:42:79
TRACK 07 AUDIO
TITLE "Stravinsky, Pulcinella, Tarantella"
PERFORMER "Berliner Philharmoniker, Olga Borodina"
INDEX 01 29:19:99
TRACK 08 AUDIO
TITLE "Tarega, Capricho Arabe"
PERFORMER "Stefano Grondona"
INDEX 01 33:55:53
TRACK 09 AUDIO
TITLE "Ghazali"
PERFORMER "Renaud Garcia-Fons"
INDEX 01 39:33:53
TRACK 10 AUDIO
TITLE "Faure Pavane"
PERFORMER "The Treya Quartet"
INDEX 01 42:32:57
TRACK 11 AUDIO
TITLE "Isn't She Lovely"
PERFORMER "Livingston Taylor"
INDEX 01 50:39:17
TRACK 12 AUDIO
TITLE "Grandma's Hands"
PERFORMER "Livingston Taylor"
INDEX 01 55:11:59
TRACK 13 AUDIO
TITLE "Walking on the Moon"
PERFORMER "The Yuri Honing"
INDEX 01 56:51:06
TRACK 14 AUDIO
TITLE "The Cost of Freedom"
PERFORMER "Marla Glen"
INDEX 01 62:18:569
TRACK 15 AUDIO
TITLE "Jazz Variants"
PERFORMER "The O-zone Percussion Group"
INDEX 01 66:11:529

PS:由于我拿到的是他的分轨的版本,这个是自己合成的,CUE的时间可能调得不太准确,望大家见谅 laugh.gif



专辑曲目

01.Gutesloher Glocken
02.Horspiel,SWF
03.Bruno-leonardo Gelber
04.Hermann Prey
05.Sonatori De La Gioiosa Marca
06.Leipziger Gewandhausorchester
07.Berliner Philharmoniker,Olga Borodina
08.Stefano Grondona
09.Renaud Garcia-Fons
10.The Treya Quartet
11.Livingston Taylor Isn`t She Lovely
12.Livingston Taylor Grandma`s Hands
13.The Yuri Honing Trio
14.Marla Glen
15.The O-zone Percussion Group

正在读取……

这里是其它用户补充的资源(我也要补充):

暂无补充资源
正在加载,请稍等...

点击查看所有41网友评论

 

(?) [公告]留口水、评论相关规则 | [活动]每日签到 轻松领取电驴经验

    小贴士:
  1. 类似“顶”、“沙发”之类没有营养的文字,对勤劳贡献的楼主来说是令人沮丧的反馈信息。
  2. 提问之前请再仔细看一遍楼主的说明,或许是您遗漏了。
  3. 勿催片。请相信驴友们对分享是富有激情的,如果确有更新版本,您一定能搜索到。
  4. 请勿到处挖坑绊人、招贴广告。既占空间让人厌烦,又没人会搭理,于人于己都无利。
  5. 如果您发现自己的评论不见了,请参考以上4条。