v

您的位置:VeryCD音乐欧美音乐

音乐资源事务区


98° -《Revelation》附mp3版本[APE]

  • 状态: 精华资源
  • 摘要:
    发行时间2000年09月26日
    地区美国
    语言英语
  • 时间: 2005/07/22 19:34:37 发布 | 2005/07/22 19:34:37 更新
  • 分类: 音乐  欧美音乐 

Athlonx

精华资源: 4

全部资源: 5

相关: 分享到新浪微博   转播到腾讯微博   分享到开心网   分享到人人   分享到QQ空间   订阅本资源RSS更新   美味书签  subtitle
该内容尚未提供权利证明,无法提供下载。
专辑中文名Revelation
歌手98°
资源格式APE
版本附mp3版本
发行时间2000年09月26日
地区美国
语言英语
简介

IPB Image


专辑名称:Revelation
专辑歌手:98°
发行日期:2000-09-26
专辑语种:English
专辑类型:Rock
唱片公司:Uptown/Universal
压缩比率:192kbps

专辑介绍:

98度是个不错的组合,歌也不错!98 Degrees是近年来的一个十分优秀的白人R&B组合,他们凭借着出色的歌唱,吸引了许多人的注意。98度有一个简单天真的成功哲学:不屈不挠、努力、坚持信念就能达成心愿!之所以取名98度,是因为它代表人体的正常温度(华氏温度),另一方面他们也希望自己的歌能够受到大家的欢迎。
对这个自97年跃入乐坛就一路唱出多白金佳绩、赢得一大群死心塌地歌迷拥护的4人美声团而言,谦逊的用心态度果真让他们在流行乐界炙手可热。一直渴望以往被优美和声掩盖的创作才华也能获得认同。现在这些年轻人的愿望真的实现了。
这个乐队成立于1996年4月3日。一共有四个成员: Jeff Timmons(第一主音),Nick Lachey(第二主音),Drew Lachey(和音)以及Justin Jeffre(和音)。
98°的成长是曲折的,正如同其他一切音乐组合那样,都是从无名小卒到成功,而这其中,便是充满了艰辛。这个梦开始于一个警卫,他带着这个梦想来到加利福尼亚。这个警卫正是98度的创立者是Jeff Timmons。毕业后,Jeff来到了洛杉机。并开始组队。Jeff坚信如果他够努力的话,他是会成功的。他与原来的队友John一起寻找合适的队友。后来,他们找到了Nick。Nick是从Cincinnati来的,他当时正在俄亥俄州的Miami University(迈阿密大学)学习运动医药学。他在洛杉矶遇到Jeff之后,建议让他的朋友Justin Jaffre也加入这个乐队。Justin Jeffre是另外一个SCPA的参与者,当他接到Nick的邀请时,他正在Cincinnati(辛辛那提)的大学里学习历史。他曾经和Nick一起登台表演过。Drew是最后一个加入的成员。因为在Nick和Justin加入后的5、6个月,John退出了乐队组合。当时他正在纽约的一家医院里从事紧急医药技术员的工作,但他不久就答应了加入98度的邀请。当Drew加入后,一个全新的乐队诞生了,这就是现在我们所看到的98度乐队组合。
98°总部设在Cincinnati,更具体地说是SCPA(创造与表演艺术的学校),也就是其中的三个成员上的学校。他们4人便一面兼差分担拮据的生计,一面为迎接将来的音乐事业契机作准备;这个他们千盼万盼的大好机会在一次Boyz II Men的演出后台发生。该团经纪人Paris D'Jon在他们身上看见未来之星的璀璨火花,随即安排98度与节奏蓝调新天王Montell Jordan(蒙泰尔乔登)一起巡回演出,这4个大男孩果然不负重望,以抢眼的舞台表现造成话题。
98°在'97年得到Motown唱片公司的出片机会,6个月后,他们开始为他们的第一张专辑工作。于是,随着一首Billboard单曲榜第十一名的歌曲《Invisible Man》,他们的首张同名专辑也出炉了。首张专辑的大获成功并没有让这几个大男孩骄傲自满,'98年他们便推出了他们最成功的作品之一------《98 Degrees And Rising》,把他们的事业推向第一个顶峰。其中首支单曲《Because Of You》夺得了Billboard单曲榜亚军的位置,其火热程度不言而喻,其他的几支单曲如《I Do (Cherish You)》、《The Hardest Thing》同样是家户逾晓的名作。98°于'99年正式加盟环球音乐旗下,2000年的全新专辑《Revelation》再次使98度红遍全球。这是一张由他们自己创作的专辑,其中既有突破了以往风格、颇具拉丁味道的亚军单曲《Give Me Just One Night(Una Noche)》,又有深情款款的R&B歌曲,以及摇滚,骚灵等大胆尝试,98度合唱团用这张专辑确立了自己实力派组合的地位。

这张专辑是原版CD格式转换的!最大限度的保证质量 !本人高ID,欢迎大家踊跃下载!


[注意]2005年8月2日18点55分之前下载的APE文件存在问题!(使用的Monkey3.7版的问题)现在已经更正,重新做的APE文件!向下载好的朋友表示深深的歉意,希望已经下载的人重新下载!并希望大家踊跃下载!很好的东东!
My QQ:17621828! 如有问题,联系,注明VC!~


关于CUE文件很抱歉:
现在贴出:

PERFORMER "98°"
TITLE "Revelation"
FILE "98°-Revelation.APE" WAVE
TRACK 01 AUDIO
TITLE "Give Me Just One Night (Una Noche)"
PERFORMER "98°"
INDEX 01 00:00:00
TRACK 02 AUDIO
TITLE "The Way You Want Me To"
PERFORMER "98°"
INDEX 01 03:25:12
TRACK 03 AUDIO
TITLE "Stay The Night"
PERFORMER "98°"
INDEX 01 06:54:65
TRACK 04 AUDIO
TITLE "Yesterday's Letter"
PERFORMER "98°"
INDEX 01 10:47:65
TRACK 05 AUDIO
TITLE "He'll Never Be.. (What I Used To Be To You)"
PERFORMER "98°"
INDEX 01 15:09:32
TRACK 06 AUDIO
TITLE "I'll Give It All (Interlude)"
PERFORMER "98°"
INDEX 01 19:22:50
TRACK 07 AUDIO
TITLE "My Everything"
PERFORMER "98°"
INDEX 01 20:02:55
TRACK 08 AUDIO
TITLE "You Should Be Mine"
PERFORMER "98°"
INDEX 01 23:53:70
TRACK 09 AUDIO
TITLE "You Don't Know"
PERFORMER "98°"
INDEX 01 27:16:05
TRACK 10 AUDIO
TITLE "Dizzy"
PERFORMER "98°"
INDEX 01 31:30:65
TRACK 11 AUDIO
TITLE "The Way You Do"
PERFORMER "98°"
INDEX 01 34:47:17
TRACK 12 AUDIO
TITLE "Always You And I"
PERFORMER "98°"
INDEX 01 38:53:02
TRACK 13 AUDIO
TITLE "Never Giving Up"
PERFORMER "98°"
INDEX 01 42:46:25
TRACK 14 AUDIO
TITLE "Never Let Go"
PERFORMER "98°"
INDEX 01 46:47:25

Enjoy Yourself!



专辑曲目

1.Give Me Just One Night (Una Noche)[Anders ]
2.The Way You Want Me To[A Lachey; Anders]
3.Stay The Night [A Bagge; A Birgisson; R Vertelney]
4.Yesterday's Letter[A Bagge; A Birgisson; A Lachey; J Timmons]
5.Yesterday's Letter[C Sturken; E Rogers; J Timmons]
6.I'll Give It All (Interlude)
7.My Everything[Anders]
8.You Should Be Mine[Nick Lachey; P Cruz; Ron Lawrence]
9.You Don't Know[L Biancaniello; N Lachey; S Watters]
10.Dizzy[ D Lachey; N. L Achey; R Lawrence]
11.The Way You Do[A Lachey; J.D. Kimball; T. L Jones]
12.Always You And I[N Lachey; R Lawrence]
13.Never Giving Up[A Bagge; A Birgisson; J Jefre; J Timmons]
14.Never Let Go [Justin Jefre]


本专辑已加入MP3共享计划!

正在读取……

这里是其它用户补充的资源(我也要补充):

暂无补充资源
正在加载,请稍等...

点击查看所有34网友评论

 

(?) [公告]留口水、评论相关规则 | [活动]每日签到 轻松领取电驴经验

    小贴士:
  1. 类似“顶”、“沙发”之类没有营养的文字,对勤劳贡献的楼主来说是令人沮丧的反馈信息。
  2. 提问之前请再仔细看一遍楼主的说明,或许是您遗漏了。
  3. 勿催片。请相信驴友们对分享是富有激情的,如果确有更新版本,您一定能搜索到。
  4. 请勿到处挖坑绊人、招贴广告。既占空间让人厌烦,又没人会搭理,于人于己都无利。
  5. 如果您发现自己的评论不见了,请参考以上4条。